Интеллигентный торрент-трекер
Нас вместе: 3 701 505 | Новости торрент-трекера | Как тут скачивать? | Как раздавать торренты? | Правила оформления

Потоп/ Flood: A River's Rampage (1998) DVDRip


 
 
RSS
Начать новую тему   Ответить на тему    Торрент-трекер NNM-Club -> Зарубежное кино -> Зарубежные Фильмы (HD*Rip/LQ, DVDRip, SATRip, VHSRip)
Предыдущая тема :: Следующая тема  
Автор Сообщение
SJSti​llAli​ve​ ®
Покровитель талантов
 


Стаж: 3 года 6 месяцев
Сообщений: 1460
Ratio: 32,194
Раздал: 11,28 TB
Поблагодарили: 58901
54.82%
logo.gif

Сообщение 10 Ноя 2012 15:26:11  Заголовок сообщения: Потоп/ Flood: A River's Rampage (1998) DVDRip Ответить с цитатой

Потоп/ Flood: A River's Rampage (1998) DVDRip
Русское название: Потоп
Оригинальное название: Flood: A River's Rampage
Год выпуска: 1998
Жанр: Катастрофа
Страна: США

Описание: Америка в панике! Чудовищные ливни приводят к тому, что река Миссисипи выходит из берегов и затопляет прибрежные города один за другим. Гигантское наводнение смывает всё живое на своём пути. Херб Делленбах и Пэт Мэллори, предвидя, что их городок будет следующим, делают всё возможное для спасения родного дома. Но вышедшая из-под контроля стихия практически не оставляет им шансов…

Режиссер: Брюс Питтман
Актеры: Ричард Томас (Richard Thomas), Кейт Вернон (Kate Vernon), Найджел Беннетт (Nigel Bennett), Майрон Беннетт (Mairon Bennett), Гэбриел Хоган (Gabriel Hogan), Кристен Боун (Kristen Bone), Винс Корацца (Vince Corazza), Ян Рубес (Jan Rubes)
Продолжительность: 01:28:18
Перевод: Профессиональный (двухголосый)
Субтитры: Отсутствуют



Премьера (мир): 1 августа 1998

Видеокодек: XviD
Битрейт видео: 1763 kbps
Размер кадра: 704x528
Качество: DVDRip
Аудио: AC3,6 ch,448 kbps

Общее
Полное имя : F:Potop.avi
Формат : AVI
Формат/Информация : Audio Video Interleave
Размер файла : 1,37 Гбайт
Продолжительность : 1 ч. 28 м.
Общий поток : 2219 Кбит/сек
Программа кодирования : VirtualDubMod 1.5.4.1 (build 2178/release)
Библиотека кодирования : VirtualDubMod build 2178/release

Видео
Идентификатор : 0
Формат : MPEG-4 Visual
Профиль формата : Advanced Simple@L5
Параметр BVOP формата : 1
Параметр QPel формата : Нет
Параметр GMC формата : Без точки перехода
Параметр матрицы формата : Выборочная
Идентификатор кодека : XVID
Идентификатор кодека/Подсказка : XviD
Продолжительность : 1 ч. 28 м.
Битрейт : 1764 Кбит/сек
Ширина : 704 пикс.
Высота : 528 пикс.
Соотношение сторон : 4:3
Частота кадров : 25,000 кадр/сек
Цветовое пространство : YUV
Подвыборка цветности : 4:2:0
Битовая глубина : 8 бит
Тип развёртки : Прогрессивная
Метод сжатия : С потерями
Бит/(Пиксели*Кадры) : 0.190
Размер потока : 1,09 Гбайт (79%)
Библиотека кодирования : XviD 64

Аудио
Идентификатор : 1
Формат : AC-3
Формат/Информация : Audio Coding 3
Расширение режима : CM (complete main)
Идентификатор кодека : 2000
Продолжительность : 1 ч. 28 м.
Вид битрейта : Постоянный
Битрейт : 448 Кбит/сек
Каналы : 6 каналов
Расположение каналов : Front: L C R, Side: L R, LFE
Частота : 48,0 КГц
Битовая глубина : 16 бит
Метод сжатия : С потерями
Размер потока : 283 Мбайт (20%)
Выравнивание : Разделение по промежуткам
Продолжительность промежутка : 96 мс. (2,40 видеокадра)
Время предзагрузки промежутка : 96 ms
Язык : Russian


Время раздачи: практически ежедневно с 12 до 4 до 10 скачавших. На раздачу не возвращаюсь.

Все раздачи Flood: A River's Rampage на NNM-CLUB
[NNM-Club.ru]_Potop.avi.torrent
 Торрент: Золотая раздача  Зарегистрирован
 
Примагнититься

Зарегистрируйтесь и скачайте торрент!
 Зарегистрирован:   10 Ноя 2012 15:26:11
 Размер:   1,37 GB  (
 Рейтинг:   4,1 (Голосов: 13)
 Поблагодарили:   72
 Проверка:   Оформление проверено модератором 10 Ноя 2012 19:08:27
Как cкачать  ·  Как раздать  ·  Правильно оформить  ·  Поднять ратио!  
Показать сообщения:   
Начать новую тему   Ответить на тему    Торрент-трекер NNM-Club -> Зарубежное кино -> Зарубежные Фильмы (HD*Rip/LQ, DVDRip, SATRip, VHSRip) Часовой пояс: GMT + 4
Страница 1 из 1