Классический форум-трекер
canvas not supported
Нас вместе: 4 069 051

Джоаккино Россини - Сорока воровка / Gioachino Rossini - La Gazza ladra (1984) DVDRip [IT]


 
 
RSS
Начать новую тему   Ответить на тему    Торрент-трекер NNM-Club -> Архив торрентов -> Архив Музыкального Видео
Автор Сообщение
ornellit ®
Стаж: 9 лет 4 мес.
Сообщений: 1747
Ratio: 162,113
Поблагодарили: 95558
100%
ukraine.gif
Джоаккино Россини - Сорока воровка / Gioachino Rossini - La Gazza ladra (1984) DVDRip
Русское название: Джоаккино Россини - Сорока воровка
Оригинальное название: Gioachino Rossini - La Gazza ladra
Год выпуска: 1984
Жанр: Опера
Выпущено: Германия, США, Westdeutscher Rundfunk (WDR), RM Associates, Kultur

Описание фильма:
Опера в двух действиях Джоакино Россини. Полное название "Сорока-воровка, или Опасность судить по наружности". Действие происходит в большом селении недалеко от Парижа. Сочинение написано в жанре оперы-семисериа, сочетающей "серьезные" элементы с комическими. Опера имела большой успех в 19 веке.

Режиссер: Михаэль Хампе, Хосе Монтес-Бакер
Актеры: Иляна Котрубас, Дэвид Кюблер, Алберто Риналди, Елена Цилио, Нуччи Кондо, Брент Эллис, Карлос Феллер, Эрлингур Вигфассон, Эберхард Кац, Клаус Бруч, Ульрих Хилшер, Франциско Вергара

Продолжительность: 02:54:21
Перевод: Отсутствует
Язык: Итальянский
Язык субтитров: Русский
Вид субтитров: Отдельным файлом

Видеокодек: Xvid
Битрейт видео: ~2000 kb/s
Размер кадра: 720 x 544
Качество видео: DVDRip
Аудиокодек: AC3 2.0
Битрейт аудио: 448 kb/s
Кёльнский оперный театр (Oper Köln)
Либретто - Джованни Герардини по пьесе Луи Шарлья Кенье и д’Обиньи "Сорока-воровка, или Служанка из Палезо". Первая постановка состоялась в Милане в театре "Ла Скала", 31 мая 1817 года.

Иляна Котрубас (Ileana Cotrubas) - Нинетта, служанка Фабрицио Винградито (сопрано)
Дэвид Кюблер (David Kuebler) - Джанетто, сын Фабрицио (тенор)
Алберто Риналди (Alberto Rinaldi) - Готтардо, подеста, сельский староста (бас)
Елена Цилио (Elena Zilio) - Пиппо, работник Фабрицио (меццо-сопрано)
Нуччи Кондо (Nucci Condo) - Лючия, жена Фабрицио (сопрано)
Брент Эллис (Brent Ellis) - Фернандо Виллабелла, отец Нинетты (бас)
Карлос Феллер (Carlos Feller) - Фабрицио Винградито, зажиточный селянин (бас)
Эрлингур Вигфассон (Erlingur Vigfusson) - Исакко (тенор)
Эберхард Кац (Eberhard Katz) - Антонио (тенор)
Клаус Бруч (Klaus Bruch) - Джорджо, слуга старосты (бас)
Ульрих Хилшер (Ulrich Hielscher) - Эрнесто, солдат, друг Фернандо (бас)
Франциско Вергара (Francisco Vergara) - Священник (бас)

Хор - Кёльнской оперы (Chor der Kölner Oper)
Оркестр - Гюрзених-Оркестр (Gürzenich-Orchester)

Дирижёр - Бруно Бартолетти (Bruno Bartoletti)
ДЕЙСТВИЕ I

Двор дома богатого фермера Фабрицио. Видна открытая клетка с сорокой. Готовится праздничный пир по случаю возвращения сына хозяина Джанетто из армии. Нинетта счастлива, что скоро увидит своего возлюбленного и отца, тоже служившего в армии. Торговец Исаак предлагает свой товар. Войдя во двор, Джанетто обнимает Нинетту и объясняется ей в любви. Начинается пир; затем все расходятся, кроме Нинетты.

Незаметно появляется ее отец Фернандо. Нинетта бросается ему на шею, но Фернандо не хочет, чтобы его видели. За провинность он приговорен к смерти. Входит подеста (сельский староста) Готтардо и объявляет Нинетте о своей любви. В это время слуга приносит ему приказ войскового командования. Фернандо передает Нинетте серебряную ложку с просьбой продать ее и вырученные деньги спрятать в дупле каштана. Готтардо, который не может прочитать приказ без очков, просит об этом Нинетту, и та изменяет имя разыскиваемого дезертира (то есть Фернандо) и его приметы. Когда управляющий и Фернандо уходят, сорока хватает со стола одну из серебряных ложек и улетает.

Комната в доме Фабрицио. Нинетта продала ложку и собирается в лес, но Джанетто пытается ее удержать. Появляются Готтардо и судейский исполнитель Грегорио. Жена Фабрицио Лючия замечает пропажу ложки, и управляющий рад начать судебное дело (если виновный — слуга, его по закону ждет смертная казнь). Сорока выкрикивает имя Нинетты. Обвиненная в воровстве, девушка плачет и, вынув из кармана платок, роняет на пол вырученные деньги. Исаак подтверждает, что купил у Нинетты ложку, которую он уже продал: на ней были инициалы Ф и В, что соответствует инициалам хозяина дома (а на самом деле означает принадлежность ложки отцу Нинетты, Фернандо Виллабелле). Девушку отводят в тюрьму.

ДЕЙСТВИЕ II

В тюрьме к Нинетте приходит Джанетто, уверенный в ее невиновности и не понимающий, почему она не оправдывается. Нинетта идет на суд. Она просит слугу Пиппо одолжить ей денег и отнести их в условленное место. Девушка дарит ему крестик. Узнав о случившемся, Фернандо бежит в суд, но приговор уже вынесен, и сам он тоже оказывается в тюрьме как дезертир.

Сельская площадь. Сорока, слетев с колокольни, крадет у Пиппо монету. Жандармы ведут Нинетту на казнь. Пиппо лезет на колокольню и находит в гнезде сороки свою монету и украденную ложку. Все проясняется. Солдаты салютуют в воздух. Фернандо тоже помилован.
Общее
Полное имя : \Rosini.Soroka.Vorovka.1984.XviD.DVDRip\Rosini.Soroka.Vorovka.1984.XviD.DVDRip.avi
Формат : AVI
Формат/Информация : Audio Video Interleave
Профиль формата : OpenDML
Размер файла : 3,00 Гбайт
Продолжительность : 2 ч. 54 м.
Общий поток : 2461 Кбит/сек
Программа кодирования : VirtualDubMod 1.5.10.2 (build 2540/release)
Библиотека кодирования : VirtualDubMod build 2540/release

Видео
Идентификатор : 0
Формат : xvid
Идентификатор кодека : xvid
Продолжительность : 2 ч. 54 м.
Битрейт : 2000 Кбит/сек
Ширина : 720 пикселей
Высота : 544 пикселя
Соотношение сторон : 4:3
Частота кадров : 29,970 кадров/сек
Бит/(Пиксели*Кадры) : 0.170
Размер потока : 2,44 Гбайт (81%)

Аудио
Идентификатор : 1
Формат : AC-3
Формат/Информация : Audio Coding 3
Расширение режима : CM (complete main)
Параметр Endianness формата : Big
Идентификатор кодека : 2000
Продолжительность : 2 ч. 54 м.
Вид битрейта : Постоянный
Битрейт : 448 Кбит/сек
Каналы : 2 канала
Расположение каналов : Front: L R
Частота : 48,0 КГц
Битовая глубина : 16 бит
Метод сжатия : С потерями
Размер потока : 558 Мбайт (18%)
Выравнивание : Разделение по промежуткам
Продолжительность промежутка : 33 мс. (1,00 видеокадр)
Время предзагрузки промежутка : 500 мс.
Скриншоты:


Время раздачи: С 13:00 до 21:00 (до 5 скачавших)
Приятного просмотра!
[NNM-Club.ru]_Rosini.Soroka.Vorovka.1984.XviD.DVDRip.torrent
 Торрент: Платиновая раздача  Зарегистрирован
 
Скачать


Примагнититься
 Зарегистрирован:   01 Окт 2012 01:50:22
 Размер:   3 GB  (
 Рейтинг:    (Голосов: 9)
 Поблагодарили:   31
 Проверка:   Оформление проверено модератором 02 Окт 2012 01:34:58
Как cкачать  ·  Как раздать  ·  Правильно оформить  ·  Поднять ратио!  
valeragr2006
Стаж: 8 лет 11 мес.
Сообщений: 21
Ratio: 12,813
100%
russia.gif
Прелесть какая! К сожалению, у нас широко известен только "Севильский цирюльник", из "Сороки" исполняют обычно лишь увертюру, а сколько в ней совершенно чудесных вокализов. Спасибо раздающему от всего сердца!
ornellit ®
Стаж: 9 лет 4 мес.
Сообщений: 1747
Ratio: 162,113
Поблагодарили: 95558
100%
ukraine.gif
valeragr2006
пожалуйста
Denits
Стаж: 7 лет 8 мес.
Сообщений: 3
Ratio: 517,907
Поблагодарили: 63
60%
Дааааа Здорово!
Топик был перенесен из форума Опера, Балет, Мюзиклы в форум Архив Музыкального Видео

Причина переноса: Отсутствие сидов более трех месяцев.

Исправил релиз - напиши ЛС ALLic, дав ссылку на релиз.
Если нет ответа 24 часа - нажми на кнопку "Обратить внимание модераторов".
Показать сообщения:   
Начать новую тему   Ответить на тему    Торрент-трекер NNM-Club -> Архив торрентов -> Архив Музыкального Видео Часовой пояс: GMT + 3
Страница 1 из 1