Интеллигентный торрент-трекер
canvas not supported
Нас вместе: 4 097 374

Фантоцци / Fantozzi (1975) DVDRip


Страницы:  1, 2  След. 
 
RSS
Начать новую тему   Ответить на тему    Торрент-трекер NNM-Club -> Классика кино и Старые фильмы до 90-х -> Зарубежная Классика (HD*Rip/LQ, DVDRip, SATRip, VHSRip)
Автор Сообщение
SKVSM ®
Покровитель талантов
Uploader 100+
 
Стаж: 7 лет 10 мес.
Сообщений: 1035
Ratio: 275,79
Поблагодарили: 19295
100%
nnm-club.gif
Фантоцци / Fantozzi (1975) DVDRip
Русское название: Фантоцци
Оригинальное название: Fantozzi
Год выпуска: 1975
Жанр: Комедия
Выпущено: Италия / Rizzoli Film S.P.A.

Описание фильма:
Уго Фантоцци всю жизнь работает младшим бухгалтером, ездит на работу в автобусе, никогда не изменял жене. Начальство ни разу не повысило ему зарплату, женщины его не замечают, а коллеги не помнят, как его зовут. Однажды Фантоцци застрял в лифте и просидел там 18 дней - никто даже не заметил его отсутствия. Так больше жить нельзя! С понедельника Фантоцци начнет новую жизнь! Он купит себе новый костюм - черный, в белую полоску, пригласит на свидание самую красивую девушку бухгалтерии, пойдет к директору и потребует повысить зарплату, на целых 10 долларов...

Режиссер: Лучиано Салче
Актеры: Паоло Вилладжио, Анна Маццамауро, Гиги Редер, Джузеппе Анатрелли, Умберто Д`Орси, Паоло Паолони

Продолжительность: 01:37:12
Перевод: Многоголосый закадровый
Субтитры: Нет



Дата мировой премьеры: 27 марта 1975
Дата выхода DVD релиза: 28 октября 2008, «Мастер Тэйп»

Видеокодек: Xvid
Битрейт видео: ~1781 Кбит/с
Размер кадра: 704x400
Качество видео: DVDRip
Аудиокодек: AC3 2.0
Битрейт аудио: АС3, 2 ch, 224 Кбит/с
Сэмпл: Ссылка
General
Complete name : F:\ФИЛЬМЫ-КОЛЛЕКЦИЯ\Ф-Ф\Fantocci.1975.XviD.DVDRip.avi
Format : AVI
Format/Info : Audio Video Interleave
File size : 1.37 GiB
Duration : 1h 37mn
Overall bit rate : 2 012 Kbps
Writing application : VirtualDubMod 1.5.4.1 (build 2178/release)
Writing library : VirtualDubMod build 2178/release

Video
ID : 0
Format : MPEG-4 Visual
Format profile : Advanced Simple@L5
Format settings, BVOP : 1
Format settings, QPel : No
Format settings, GMC : No warppoints
Format settings, Matrix : Custom
Codec ID : XVID
Codec ID/Hint : XviD
Duration : 1h 37mn
Bit rate : 1 781 Kbps
Width : 704 pixels
Height : 400 pixels
Display aspect ratio : 16:9
Frame rate : 25.000 fps
Color space : YUV
Chroma subsampling : 4:2:0
Bit depth : 8 bits
Scan type : Progressive
Compression mode : Lossy
Bits/(Pixel*Frame) : 0.253
Stream size : 1.21 GiB (89%)
Writing library : XviD 1.2.0.dev47 (UTC 2006-11-01)

Audio
ID : 1
Format : AC-3
Format/Info : Audio Coding 3
Mode extension : CM (complete main)
Format settings, Endianness : Big
Codec ID : 2000
Duration : 1h 37mn
Bit rate mode : Constant
Bit rate : 224 Kbps
Channel(s) : 2 channels
Channel positions : Front: L R
Sampling rate : 48.0 KHz
Bit depth : 16 bits
Compression mode : Lossy
Stream size : 156 MiB (11%)
Alignment : Split accross interleaves
Interleave, duration : 96 ms (2.40 video frames)
Interleave, preload duration : 96 ms
Language : Russian
Скриншоты:


Время раздачи: 24/7 - круглосуточно
[NNM-Club.ru]_Fantocci.1975.XviD.DVDRip.avi.torrent
 Торрент: Платиновая раздача  Зарегистрирован
 
Скачать


Примагнититься
 Зарегистрирован:   25 Сен 2012 19:38:29
 Размер:   1,37 GB  (
 Рейтинг:   4,9 (Голосов: 119)
 Поблагодарили:   453
 Проверка:   Оформление проверено модератором 26 Сен 2012 02:44:22
Как cкачать  ·  Как раздать  ·  Правильно оформить  ·  Поднять ратио!  
мурат555
Стаж: 7 лет 6 мес.
Сообщений: 269
Ratio: 3,138
0.2%
russia.gif
классный фильм!!!!

Добавлено спустя 53 минуты 10 секунд:

снимите ограничения на торенте
belfagan
Стаж: 7 лет 5 мес.
Сообщений: 1
Ratio: 2,513
17.89%
Классика!
alexe​ysiri​us​
Стаж: 7 лет 2 мес.
Сообщений: 5
Ratio: 0,565
96.55%
russia.gif
Отличные фильмы про Фантоцци! С первого просмотра не замечаешь мелочей в фильме, и в последующие разы просмотра фильм ещё интереснее становится. Паоло Вилладжио великий сатирик и комик, и конечно же писатель!!!!
SKVSM ®
Покровитель талантов
Uploader 100+
 
Стаж: 7 лет 10 мес.
Сообщений: 1035
Ratio: 275,79
Поблагодарили: 19295
100%
nnm-club.gif
Diesel88
Стаж: 5 лет 7 мес.
Сообщений: 1509
Ratio: 19,21
100%
ussr.gif
Благодарю за это необычное,но все-же интересное кино.
SKVSM ®
Покровитель талантов
Uploader 100+
 
Стаж: 7 лет 10 мес.
Сообщений: 1035
Ratio: 275,79
Поблагодарили: 19295
100%
nnm-club.gif
Потрошитель писал(а): Перейти к сообщению
Благодарю за это необычное,но все-же интересное кино.
Всегда пожалуйста.
NRJ 505
Стаж: 7 лет 9 мес.
Сообщений: 11
Ratio: 2,391
25.25%
Шикарная комедия! Все современные стоят в сторонке)
SKVSM ®
Покровитель талантов
Uploader 100+
 
Стаж: 7 лет 10 мес.
Сообщений: 1035
Ratio: 275,79
Поблагодарили: 19295
100%
nnm-club.gif
qbm62755 писал(а): Перейти к сообщению
Культовая комедия!!! :лол:

NRJ 505 писал(а): Перейти к сообщению
Шикарная комедия! Все современные стоят в сторонке)

+1
solta​novvl​ad​
Стаж: 7 лет 6 мес.
Сообщений: 55
Ratio: 0,465
1.61%
botswana.gif
Жаль, про новый фильм говорили, но так и не сняли.
SKVSM ®
Покровитель талантов
Uploader 100+
 
Стаж: 7 лет 10 мес.
Сообщений: 1035
Ratio: 275,79
Поблагодарили: 19295
100%
nnm-club.gif
soltanovvlad писал(а): Перейти к сообщению
Жаль, про новый фильм говорили, но так и не сняли.

Это точно. Теперь на это рассчитывать не приходиться Паоло Вилладжо слишком старенький 82 года уже.
masster
Стаж: 9 лет 4 мес.
Сообщений: 168
Ratio: 196,16
100%
russia.gif
спасибо! Остальные фильмы стоит ждать?
SKVSM ®
Покровитель талантов
Uploader 100+
 
Стаж: 7 лет 10 мес.
Сообщений: 1035
Ratio: 275,79
Поблагодарили: 19295
100%
nnm-club.gif
masster писал(а): Перейти к сообщению
спасибо! Остальные фильмы стоит ждать?

Не за что. Выше в комментах под спойлером Уго Фантоцци ссылки на все фильмы.
masster
Стаж: 9 лет 4 мес.
Сообщений: 168
Ratio: 196,16
100%
russia.gif
SKVSM писал(а): Перейти к сообщению
masster писал(а): Перейти к сообщению
спасибо! Остальные фильмы стоит ждать?

Не за что. Выше в комментах под спойлером Уго Фантоцци ссылки на все фильмы.


Во как, а я и не заметил. СПАСИБО!
Jack_​Danie​ls_he​rs​
Стаж: 1 год 6 мес.
Сообщений: 3
Ratio: 0,138
5.13%
Вставьте пожалуйста на раздачу! Благодарю всех откликнувшихся!))
Показать сообщения:   
Начать новую тему   Ответить на тему    Торрент-трекер NNM-Club -> Классика кино и Старые фильмы до 90-х -> Зарубежная Классика (HD*Rip/LQ, DVDRip, SATRip, VHSRip) Часовой пояс: GMT + 3
Страницы:  1, 2  След.
Страница 1 из 2