Интеллигентный торрент-трекер

Нас вместе: 3 649 912 | Новости торрент-трекера | Как тут скачивать? | Как раздавать торренты? | Правила оформления

Скачать бесплатно торрент VA - AUDIO'S Audiophile Vol. 09 - Cover Me (1999) [FLAC|Lossless]<Pop, Rock> torrent download


 
 
RSS
Начать новую тему   Ответить на тему    Торрент-трекер NNM-Club -> Pop -> Зарубежная поп-музыка (Lossless)
Предыдущая тема :: Следующая тема 
Автор Сообщение
PlaNed ®


Стаж: 2 года 6 мес.
Сообщений: 1287
Ratio: 10K
Раздал: 40,28 TB
Поблагодарили: 52172
100%
Откуда: The Net!
bulgaria.gif

Сообщение 17 Сен 2012 21:55:02  Заголовок сообщения: VA - AUDIO'S Audiophile Vol. 09 - Cover Me (1999) [FLAC|Lossless]<Pop, Rock> Ответить с цитатой

VA - AUDIO'S Audiophile Vol. 09 - Cover Me (1999)
Год: 1999
Жанр: Pop, Rock

Издатель: Vereiningte Motor-Verlage GmbH & Co.KG / Zounds Music
Страна изготовитель: Austria
Продолжительность: 01:16:52

Кодек: FLAC
Тип рипа: tracks + .cue
Битрейт: Lossless

Треклист:
01. Angelique Kidjo - Voodoo Child [03:51]
02. Rahsaan Patterson - Street Life [05:02]
03. Dianne Reeves - In Your Eyes [05:21]
04. Sara K. - Oh Well [02:45]
05. Roger Daltrey - Say It Ain't So Joe [04:18]
06. Livingston Taylor - Baker Street [03:58]
07. Sidsel Endresen & Bugge Wesseltoft - Fifty Ways To Leave Your Lover [04:58]
08. Jose Feliciano - Light My Fire [03:37]
09. Jesse Cook feat. Holly Cole - Fragile [03:57]
10. Paul Young - Wherever I Lay My Hat (That's My Home) [04:11]
11. Be Mine Or Run - Baby You Can Drive My Car [03:07]
12. Katy Moffatt - Mr. Banker [04:11]
13. Abraxas Pool - Jingo [07:10]
14. The Yuri Honing Trio - Walking On The Moon [05:30]
15. Indigo Girls - Midnight Train To Georgia [05:05]
16. Cassandra Wilson - Harvest Moon [05:03]
17. Apocalyptica - Nothing Else Matters [04:48]
Код:

Exact Audio Copy V0.99 prebeta 4 from 23. January 2008

EAC extraction logfile from 28. September 2008, 15:00

Various / Cover Me (AUDIO's Audiophile)

Used drive  : PLEXTOR CD-R   PREMIUM   Adapter: 1  ID: 0

Read mode               : Secure
Utilize accurate stream : Yes
Defeat audio cache      : Yes
Make use of C2 pointers : No

Read offset correction                      : 30
Overread into Lead-In and Lead-Out          : No
Fill up missing offset samples with silence : Yes
Delete leading and trailing silent blocks   : No
Null samples used in CRC calculations       : Yes
Used interface                              : Native Win32 interface for Win NT & 2000
Gap handling                                : Not detected, thus appended to previous track

Used output format              : User Defined Encoder
Selected bitrate                : 1024 kBit/s
Quality                         : High
Add ID3 tag                     : No
Command line compressor         : D:\Program Files\Exact Audio Copy\Flac\flac.exe
Additional command line options : -V -8 -T "artist=%a" -T "title=%t" -T "album=%g" -T "date=%y" -T "tracknumber=%n" -T "genre=%m" %s

TOC of the extracted CD

     Track |   Start  |  Length  | Start sector | End sector
    ---------------------------------------------------------
        1  |  0:00.00 |  3:51.21 |         0    |    17345
        2  |  3:51.21 |  5:02.20 |     17346    |    40015
        3  |  8:53.41 |  5:21.28 |     40016    |    64118
        4  | 14:14.69 |  2:44.55 |     64119    |    76473
        5  | 16:59.49 |  4:17.43 |     76474    |    95791
        6  | 21:17.17 |  3:58.12 |     95792    |   113653
        7  | 25:15.29 |  4:58.19 |    113654    |   136022
        8  | 30:13.48 |  3:37.05 |    136023    |   152302
        9  | 33:50.53 |  3:56.60 |    152303    |   170062
       10  | 37:47.38 |  4:10.58 |    170063    |   188870
       11  | 41:58.21 |  3:06.44 |    188871    |   202864
       12  | 45:04.65 |  4:11.01 |    202865    |   221690
       13  | 49:15.66 |  7:09.53 |    221691    |   253918
       14  | 56:25.44 |  5:29.45 |    253919    |   278638
       15  | 61:55.14 |  5:04.46 |    278639    |   301484
       16  | 66:59.60 |  5:03.05 |    301485    |   324214
       17  | 72:02.65 |  4:47.61 |    324215    |   345800

Track  1

     Filename D:\Eac Rips\Cover Me (AUDIO's Audiophile)-1999\01-Angelique Kidjo-Voodoo Child.wav

     Peak level 87.0 %
     Track quality 100.0 %
     Test CRC 0F26958D
     Copy CRC 0F26958D
     Accurately ripped (confidence 4)  [D6EE36A3]
     Copy OK

Track  2

     Filename D:\Eac Rips\Cover Me (AUDIO's Audiophile)-1999\02-Rahsaan Patterson-Street Life.wav

     Peak level 87.0 %
     Track quality 100.0 %
     Test CRC CA427CE3
     Copy CRC CA427CE3
     Accurately ripped (confidence 4)  [E400EDD3]
     Copy OK

Track  3

     Filename D:\Eac Rips\Cover Me (AUDIO's Audiophile)-1999\03-Dianne Reeves-In Your Eyes.wav

     Peak level 99.8 %
     Track quality 100.0 %
     Test CRC B23303A5
     Copy CRC B23303A5
     Accurately ripped (confidence 4)  [F4B5BDFF]
     Copy OK

Track  4

     Filename D:\Eac Rips\Cover Me (AUDIO's Audiophile)-1999\04-Sara K.-Oh Well.wav

     Peak level 99.0 %
     Track quality 100.0 %
     Test CRC 566B5F8F
     Copy CRC 566B5F8F
     Accurately ripped (confidence 4)  [A9B087D5]
     Copy OK

Track  5

     Filename D:\Eac Rips\Cover Me (AUDIO's Audiophile)-1999\05-Roger Daltrey-Say It Ain't So Joe.wav

     Peak level 82.1 %
     Track quality 100.0 %
     Test CRC 03560288
     Copy CRC 03560288
     Accurately ripped (confidence 4)  [E57A7B93]
     Copy OK

Track  6

     Filename D:\Eac Rips\Cover Me (AUDIO's Audiophile)-1999\06-Livingston Taylor-Baker Street.wav

     Peak level 99.6 %
     Track quality 100.0 %
     Test CRC CC2FBE95
     Copy CRC CC2FBE95
     Accurately ripped (confidence 4)  [3A813371]
     Copy OK

Track  7

     Filename D:\Eac Rips\Cover Me (AUDIO's Audiophile)-1999\07-Sidsel Endresen & Bugge Wesseltoft-Fifty Ways To Leave Your Lover.wav

     Peak level 64.6 %
     Track quality 100.0 %
     Test CRC 480CD144
     Copy CRC 480CD144
     Accurately ripped (confidence 4)  [EDBF7068]
     Copy OK

Track  8

     Filename D:\Eac Rips\Cover Me (AUDIO's Audiophile)-1999\08-Josй Feliciano-Light My Fire.wav

     Peak level 98.6 %
     Track quality 100.0 %
     Test CRC FB302A67
     Copy CRC FB302A67
     Accurately ripped (confidence 4)  [542A0236]
     Copy OK

Track  9

     Filename D:\Eac Rips\Cover Me (AUDIO's Audiophile)-1999\09-Jesse Cook feat. Holly Cole-Fragile.wav

     Peak level 87.0 %
     Track quality 100.0 %
     Test CRC 1A8EE55D
     Copy CRC 1A8EE55D
     Accurately ripped (confidence 4)  [25466F78]
     Copy OK

Track 10

     Filename D:\Eac Rips\Cover Me (AUDIO's Audiophile)-1999\10-Paul Young-Wherever I Lay My Hat (That's My Home).wav

     Peak level 100.0 %
     Track quality 100.0 %
     Test CRC 9EF0F498
     Copy CRC 9EF0F498
     Accurately ripped (confidence 4)  [13093ADC]
     Copy OK

Track 11

     Filename D:\Eac Rips\Cover Me (AUDIO's Audiophile)-1999\11-Be Mine Or Run-Baby You Can Drive My Car.wav

     Peak level 98.0 %
     Track quality 100.0 %
     Test CRC F27F2042
     Copy CRC F27F2042
     Accurately ripped (confidence 4)  [841A01D0]
     Copy OK

Track 12

     Filename D:\Eac Rips\Cover Me (AUDIO's Audiophile)-1999\12-Katy Moffatt-Mr. Banker.wav

     Peak level 88.5 %
     Track quality 100.0 %
     Test CRC FD567B3A
     Copy CRC FD567B3A
     Accurately ripped (confidence 4)  [425B6B4D]
     Copy OK

Track 13

     Filename D:\Eac Rips\Cover Me (AUDIO's Audiophile)-1999\13-Abraxas Pool-Jingo.wav

     Peak level 99.8 %
     Track quality 99.9 %
     Test CRC 0774EEAE
     Copy CRC 0774EEAE
     Accurately ripped (confidence 4)  [AD335CD1]
     Copy OK

Track 14

     Filename D:\Eac Rips\Cover Me (AUDIO's Audiophile)-1999\14-The Yuri Honing Trio-Walking On The Moon.wav

     Peak level 100.0 %
     Track quality 100.0 %
     Test CRC 4C1FDB1A
     Copy CRC 4C1FDB1A
     Accurately ripped (confidence 4)  [18C5D5AD]
     Copy OK

Track 15

     Filename D:\Eac Rips\Cover Me (AUDIO's Audiophile)-1999\15-Indigo Girls-Midnight Train To Georgia.wav

     Peak level 100.0 %
     Track quality 100.0 %
     Test CRC 8034C350
     Copy CRC 8034C350
     Accurately ripped (confidence 4)  [89A31BDC]
     Copy OK

Track 16

     Filename D:\Eac Rips\Cover Me (AUDIO's Audiophile)-1999\16-Cassandra Wilson-Harvest Moon.wav

     Peak level 98.0 %
     Track quality 100.0 %
     Test CRC CC6E4B76
     Copy CRC CC6E4B76
     Accurately ripped (confidence 4)  [5C135D9F]
     Copy OK

Track 17

     Filename D:\Eac Rips\Cover Me (AUDIO's Audiophile)-1999\17-Apocalyptica-Nothing Else Matters.wav

     Peak level 93.2 %
     Track quality 100.0 %
     Test CRC 6E5FB522
     Copy CRC 6E5FB522
     Accurately ripped (confidence 4)  [7475C13A]
     Copy OK

All tracks accurately ripped

No errors occurred

End of status report
Код:

-----------------------

DON'T MODIFY THIS FILE

-----------------------

PERFORMER: auCDtect Task Manager, ver. 1.5.1RC6 build 1.5.1.7
Copyright (c) 2008-2010 y-soft. All rights reserved
http://y-soft.org

ANALYZER: auCDtect: CD records authenticity detector, version 0.8.2
Copyright (c) 2004 Oleg Berngardt. All rights reserved.
Copyright (c) 2004 Alexander Djourik. All rights reserved.

FILE: 17-Apocalyptica-Nothing Else Matters.flac
  Size: 27666270 Hash: 8441B6B3B45016BBE38FA187B9193658 Accuracy: -m0
  Conclusion: CDDA 100%
  Signature: 60F89156EB9D8D6FF7B8871FE81EE5C19BB42A2C
FILE: 16-Cassandra Wilson-Harvest Moon.flac
  Size: 26498256 Hash: AD81DFFC64B67205D552C95A7196DF1F Accuracy: -m0
  Conclusion: CDDA 100%
  Signature: 13BB6123077C2FCA9278AB1B3935DDB1DC29BD95
FILE: 15-Indigo Girls-Midnight Train To Georgia.flac
  Size: 36375048 Hash: D7D86411C7BF3EF45E17995B299EC86C Accuracy: -m0
  Conclusion: CDDA 100%
  Signature: B3E2DCCDBE847BE5C82A0B182F7F0587E9996485
FILE: 14-The Yuri Honing Trio-Walking On The Moon.flac
  Size: 26673896 Hash: C3EB3B28404849DCCFECB8638886AB86 Accuracy: -m0
  Conclusion: CDDA 100%
  Signature: 2F72B7D27F58D30DA925619643FE30885DE2646C
FILE: 13-Abraxas Pool-Jingo.flac
  Size: 53035131 Hash: DB4596D4A46EC4C10D943C84EF8AF6EF Accuracy: -m0
  Conclusion: CDDA 100%
  Signature: 256025D51370785B9BD25116C2F0AEEDE392115B
FILE: 12-Katy Moffatt-Mr. Banker.flac
  Size: 20516692 Hash: 26737895EDC59A8B3E625822FA01A744 Accuracy: -m0
  Conclusion: CDDA 100%
  Signature: 524673DFBBEC4F173C0D34E5239E30D200A95131
FILE: 11-Be Mine Or Run-Baby You Can Drive My Car.flac
  Size: 16809678 Hash: CAF26CAD2E96B978AA2766B98433AE81 Accuracy: -m0
  Conclusion: CDDA 100%
  Signature: 97AB1221CF0D43C6B6B2B3E5B560AEC8146F9D3A
FILE: 10-Paul Young-Wherever I Lay My Hat (That's My Home).flac
  Size: 26024528 Hash: 202CED28830129BE3CFC6A006989EBE4 Accuracy: -m0
  Conclusion: CDDA 100%
  Signature: 52F49C1BE888BFED94F88A8FBF63D35EDFEAF6D7
FILE: 09-Jesse Cook feat. Holly Cole-Fragile.flac
  Size: 26085835 Hash: 7D54ACFEBCF4EBAC806572CF4A36B801 Accuracy: -m0
  Conclusion: CDDA 99%
  Signature: 840C4858DEF8BCF8F7482993D7BC9BB17893B23E
FILE: 08-José Feliciano-Light My Fire.flac
  Size: 20210937 Hash: 94E52D1232F05C327A12F07067F289BE Accuracy: -m0
  Conclusion: CDDA 100%
  Signature: 78CA06051A032A4F7D04C43519B5D137B1E0BDCC
FILE: 07-Sidsel Endresen & Bugge Wesseltoft-Fifty Ways To Leave Your Lover.flac
  Size: 19481156 Hash: E3461539D3B57304218BA51C58E59D4B Accuracy: -m0
  Conclusion: CDDA 100%
  Signature: 6BF919D6FFDA40089FDA468A5183DC56D94A799D
FILE: 06-Livingston Taylor-Baker Street.flac
  Size: 24541842 Hash: A7C705F4A163F0C61F05FFC75BEE84E3 Accuracy: -m0
  Conclusion: CDDA 100%
  Signature: BA2A1678621BAAAF417B18669EB48152808AED5B
FILE: 05-Roger Daltrey-Say It Ain't So Joe.flac
  Size: 32006847 Hash: E9FDB4742AF1F6EE1DCB28F3D6B3BCB1 Accuracy: -m0
  Conclusion: CDDA 100%
  Signature: 8A98A524B89D9976365AB609E89E00BFFB1A95FC
FILE: 04-Sara K.-Oh Well.flac
  Size: 15413458 Hash: 6A9080A1A03A7E964E0CE13CA02EA01B Accuracy: -m0
  Conclusion: CDDA 100%
  Signature: D23E61545C96A1D2BF23A63EEC290847498E5D0A
FILE: 03-Dianne Reeves-In Your Eyes.flac
  Size: 35374116 Hash: C04E241E963AAF5BD30102D3452E0EE6 Accuracy: -m0
  Conclusion: CDDA 100%
  Signature: CCB5204B894CE66AFBE15A66F39CDC00A32481FB
FILE: 02-Rahsaan Patterson-Street Life.flac
  Size: 37880305 Hash: A64EAD7E6DC2E0749B9ED9E4C3621CFA Accuracy: -m0
  Conclusion: CDDA 100%
  Signature: BD576065B13963CD9B3D1695DACB290F7373F691
FILE: 01-Angelique Kidjo-Voodoo Child.flac
  Size: 27289008 Hash: F969BB8A6EBC319ACB2964589D0C5B10 Accuracy: -m0
  Conclusion: CDDA 100%
  Signature: 8D92B01FE11435479C4FC7F8E05D3A6A07350A5A
Реставрация от: Pashketan
[NNM-Club.ru]_VA - Cover Me (AUDIO's Audiophile)-1999.torrent
 Торрент: Золотая раздача  Зарегистрирован
 


Зарегистрируйтесь и скачайте торрент!
 Зарегистрирован:   17 Сен 2012 21:55:02
 Размер:   451 MB  (
 Рейтинг:    (Голосов: 7)
 Поблагодарили:   34
 Проверка:   Оформление проверено модератором 18 Сен 2012 08:57:36
Как cкачать  ·  Как раздать  ·  Правильно оформить  ·  Поднять ратио!  
Показать сообщения:   
Начать новую тему   Ответить на тему    Торрент-трекер NNM-Club -> Pop -> Зарубежная поп-музыка (Lossless) Часовой пояс: GMT + 4
Страница 1 из 1