Классический форум-трекер
canvas not supported
Нас вместе: 4 069 058

Сумерки.Сага: Квадрология / Twilight. Saga: Quadrology (2008-2012) BDRip [H.264]


Страницы:  1, 2  След. 
 
RSS
Начать новую тему   Ответить на тему    Торрент-трекер NNM-Club -> Коллекции / *логии -> Зарубежное кино (коллекции / *логии)
Автор Сообщение
Zov72 ®
Стаж: 9 лет 2 мес.
Сообщений: 4743
Ratio: 110,504
Поблагодарили: 594644
100%
Откуда: Вольный кабан
wild_hogs.gif


Сумерки / Twilight (2008)

«Запретный плод сладок»
Русское название: Сумерки
Оригинальное название: Twilight
Год выпуска: 2008
Производство: США
Жанр: фэнтези, драма, мелодрама, приключения
Перевод: Дубляж
Язык cубтитров: Русский, Украинский, Английский
Вид субтитров: Вшитые отключаемые

Дата мировой премьеры: 7 ноября 2008
Дата российской премьеры: 20 ноября 2008, «West»
Дата выхода DVD релиза: 7 апреля 2009, «West Video»

Режиссер: Кэтрин Хардвик
Продюсер: Вик Годфри, Грег Мурадиан, Марк Морган
Актеры: Кристен Стюарт, Роберт Паттинсон, Мэтт Бушнелл, Билли Бурк, Келлан Латс, Сара Кларк, Джил Бирмингем, Кэм Жиганде, Тэйлор Лотнер, Никки Рид, Анна Кендрик, Грегори Тайри Бойс, Джастин Чон, Майкл Уэлш, Кристиан Серратос, Эшли Грин, Джексон Рэтбоун, Хосе Суньига, Триш Иган, Айанна Беркшир, Нед Беллами, Брик Флинт-Соммервилл, Питер Фасинелли, Соломон Тримбл, Рашель Лефевр, Эди Гатеги, Александр Менделюк, Хантер Джексон, Гэвин Бристоль, Шон МакГрат, Кэти Пауэрс, Элизабет Ризер, Катерин Гримм, Кейли Алиссано, Уильям Джозеф Элк III, Виктория Гейл, Стефани Майер

Описание фильма:
В четвертой части Белла Свон оказывается перед непростым выбором — сохранить жизнь себе или своему ребенку (наполовину вампиру, наполовину человеку). Она решает оставить малыша, но Эдвард и остальные члены семьи Каллен категорически против.

Помощи Белле ждать не от кого, но она приходит неожиданно, от того, от кого её совсем не ждали. Вдвоем Белла и Розали пытаются сохранить жизнь малышу, даже не догадываясь, к каким ужасающим последствиям это приведет.

Автор рипа: potroks

Продолжительность: 02:01:50
Качество видео: BDRip

Видеокодек: MPEG-4 AVC/H.264
Битрейт видео: ~ 1921 Кбит/сек
Размер кадра: 1056x440 (2,40:1)
Аудио 1: 6 ch., 48 kHz, ~448.00 kbps | русский
Аудио 2: 2 ch., 48 kHz, ~192.00 kbps | английский


Код:

Общее
Уникальный идентификатор                 : 238105859956969740732178445479159596951 (0xB321854395D7A7669E59CCC976850797)
Полное имя                               : E:\Загрузка\Sumerki.Quadrology\Sumerki.2008.BDRip.x264.potroks.mkv
Формат                                   : Matroska
Версия формата                           : Version 2
Размер файла                             : 2,18 Гбайт
Продолжительность                        : 2 ч. 1 м.
Общий поток                              : 2564 Кбит/сек
Название фильма                          : -=POTROKS=-
Дата кодирования                         : UTC 2011-11-22 18:20:06
Программа кодирования                    : mkvmerge v5.0.1 ('Es ist Sommer') built on Oct  9 2011 11:55:43
Библиотека кодирования                   : libebml v1.2.2 + libmatroska v1.3.0

Видео
Идентификатор                            : 1
Формат                                   : AVC
Формат/Информация                        : Advanced Video Codec
Профиль формата                          : High@L4.1
Параметр CABAC формата                   : Да
Параметр ReFrames формата                : 12 кадров
Идентификатор кодека                     : V_MPEG4/ISO/AVC
Продолжительность                        : 2 ч. 1 м.
Битрейт                                  : 1921 Кбит/сек
Ширина                                   : 1056 пикселей
Высота                                   : 440 пикселей
Соотношение сторон                       : 2,40:1
Режим частоты кадров                     : Переменный
Частота кадров                           : 23,976 кадра/сек
Цветовое пространство                    : YUV
Субдискретизация насыщенности            : 4:2:0
Битовая глубина                          : 8 бит
Тип развёртки                            : Прогрессивная
Бит/(Пиксели*Кадры)                      : 0.172
Размер потока                            : 1,59 Гбайт (73%)
Заголовок                                : Sumerki.2008.BDRip.x264.potroks
Библиотека кодирования                   : x264 core 116 r2019M 9cc407d
Настройки программы                      : cabac=1 / ref=13 / deblock=1:-2:-2 / analyse=0x3:0x133 / me=umh / subme=10 / psy=1 / psy_rd=1.00:0.20 / mixed_ref=1 / me_range=32 / chroma_me=1 / trellis=2 / 8x8dct=1 / cqm=0 / deadzone=21,11 / fast_pskip=1 / chroma_qp_offset=-3 / threads=8 / sliced_threads=0 / nr=0 / decimate=1 / interlaced=0 / bluray_compat=0 / constrained_intra=0 / bframes=3 / b_pyramid=1 / b_adapt=2 / b_bias=0 / direct=3 / weightb=1 / open_gop=0 / weightp=2 / keyint=230 / keyint_min=23 / scenecut=40 / intra_refresh=0 / rc_lookahead=40 / rc=2pass / mbtree=1 / bitrate=1921 / ratetol=1.0 / qcomp=0.60 / qpmin=10 / qpmax=51 / qpstep=4 / cplxblur=20.0 / qblur=0.5 / ip_ratio=1.40 / aq=1:1.00
Язык                                     : English
Default                                  : Да
Forced                                   : Нет

Аудио #1
Идентификатор                            : 2
Формат                                   : AC-3
Формат/Информация                        : Audio Coding 3
Расширение режима                        : CM (complete main)
Параметр Endianness формата              : Big
Идентификатор кодека                     : A_AC3
Продолжительность                        : 2 ч. 1 м.
Вид битрейта                             : Постоянный
Битрейт                                  : 448 Кбит/сек
Каналы                                   : 6 каналов
Расположение каналов                     : Front: L C R, Side: L R, LFE
Частота                                  : 48,0 КГц
Битовая глубина                          : 16 бит
Метод сжатия                             : С потерями
Размер потока                            : 390 Мбайт (17%)
Заголовок                                : Дубляж, BluRay
Язык                                     : Russian
Default                                  : Да
Forced                                   : Нет

Аудио #2
Идентификатор                            : 3
Формат                                   : AC-3
Формат/Информация                        : Audio Coding 3
Расширение режима                        : CM (complete main)
Параметр Endianness формата              : Big
Идентификатор кодека                     : A_AC3
Продолжительность                        : 2 ч. 1 м.
Вид битрейта                             : Постоянный
Битрейт                                  : 192 Кбит/сек
Каналы                                   : 2 канала
Расположение каналов                     : Front: L R
Частота                                  : 48,0 КГц
Битовая глубина                          : 16 бит
Метод сжатия                             : С потерями
Размер потока                            : 167 Мбайт (7%)
Заголовок                                : Оригинал
Язык                                     : English
Default                                  : Нет
Forced                                   : Нет

Текст #1
Идентификатор                            : 4
Формат                                   : UTF-8
Идентификатор кодека                     : S_TEXT/UTF8
Идентификатор кодека/Информация          : UTF-8 Plain Text
Язык                                     : Russian
Default                                  : Да
Forced                                   : Нет

Текст #2
Идентификатор                            : 5
Формат                                   : UTF-8
Идентификатор кодека                     : S_TEXT/UTF8
Идентификатор кодека/Информация          : UTF-8 Plain Text
Язык                                     : Ukrainian
Default                                  : Нет
Forced                                   : Нет

Текст #3
Идентификатор                            : 6
Формат                                   : UTF-8
Идентификатор кодека                     : S_TEXT/UTF8
Идентификатор кодека/Информация          : UTF-8 Plain Text
Заголовок                                : Для плохо слышащих
Язык                                     : English
Default                                  : Нет
Forced                                   : Нет


Cкриншоты из фильма:



Сумерки. Сага. Новолуние / The Twilight Saga: New Moon (2009)
«It will be as if I'd never existed.»
Русское название: Сумерки. Сага. Новолуние
Оригинальное название: The Twilight Saga: New Moon
Год выпуска: 2009
Производство: США
Жанр: фэнтези, драма, мелодрама, приключения
Перевод: Дубляж
Язык cубтитров: Русский, Украинский, Английский
Вид субтитров: Вшитые отключаемые

Дата мировой премьеры: 16 ноября 2009
Дата российской премьеры: 19 ноября 2009, «West»
Дата выхода DVD релиза: 24 марта 2010, «West Video»

Режиссер: Крис Вайц
Продюсер: Карен Розенфельт, Вик Годфри, Билл Баннерман
Актеры: Кристен Стюарт, Тэйлор Лотнер, Роберт Паттинсон, Билли Бурк, Эшли Грин, Анна Кендрик, Кристиан Серратос, Майкл Уэлш, Джастин Чон, Кристина Ястржембска, Джексон Рэтбоун, Расселл Робертс, Майкл Шин, Джейми Кэмпбелл Бауэр, Кристофер Хейердал, Питер Фасинелли, Кертис Караваджо, Дэниэл Кадмор, Чарли Бьюли, Рашель Лефевр, Элизабет Ризер, Келлан Латс, Никки Рид, Чэск Спенсер, Джил Бирмингем, Грэм Грин, Эдриан Дорваль, Майкл Адамуэйт, Александр Менделюк, Хантер Джексон, Гэвин Бристоль, Шон МакГрат, Кайова Гордон, Нут Сиир

Описание фильма:
Влюбиться в вампира — страшно и романтично. Но потерять любимого, решившего ценой разрыва спасти свою девушку от роли пешки в вечном противостоянии кланов «ночных охотников», — это просто невыносимо. Белла Свон мучительно переживает исчезновение Эдварда и безуспешно ищет забвения в дружбе с мальчишкой-индейцем Джейкобом Блэком. Она даже не подозревает, что её лучший друг — порождение ещё одного «народа Тьмы». Народа, куда более жестокого и опасного, чем аристократы-вампиры…

Автор рипа: potroks

Продолжительность: 02:10:38
Качество видео: BDRip

Видеокодек: MPEG-4 AVC/H.264
Битрейт видео: ~ 1869 Кбит/сек
Размер кадра: 1056x440 (2,40:1)
Аудио 1: 6 ch., 48 kHz, ~448.00 kbps | русский
Аудио 2: 2 ch., 48 kHz, ~192.00 kbps | английский


Код:

Общее
Уникальный идентификатор                 : 223004114900312733028281468008777627471 (0xA7C507BF2C1E73E0B9F60A02BDE3B74F)
Полное имя                               : E:\Загрузка\Sumerki.Quadrology\Sumerki.Saga.Novolunie.2009.BDRip.x264.potroks.mkv
Формат                                   : Matroska
Версия формата                           : Version 2
Размер файла                             : 2,29 Гбайт
Продолжительность                        : 2 ч. 10 м.
Общий поток                              : 2508 Кбит/сек
Название фильма                          : -=POTROKS=-
Дата кодирования                         : UTC 2011-11-23 19:06:16
Программа кодирования                    : mkvmerge v5.0.1 ('Es ist Sommer') built on Oct  9 2011 11:55:43
Библиотека кодирования                   : libebml v1.2.2 + libmatroska v1.3.0

Видео
Идентификатор                            : 1
Формат                                   : AVC
Формат/Информация                        : Advanced Video Codec
Профиль формата                          : High@L4.1
Параметр CABAC формата                   : Да
Параметр ReFrames формата                : 12 кадров
Идентификатор кодека                     : V_MPEG4/ISO/AVC
Продолжительность                        : 2 ч. 10 м.
Битрейт                                  : 1869 Кбит/сек
Ширина                                   : 1056 пикселей
Высота                                   : 440 пикселей
Соотношение сторон                       : 2,40:1
Режим частоты кадров                     : Переменный
Частота кадров                           : 23,976 кадра/сек
Цветовое пространство                    : YUV
Субдискретизация насыщенности            : 4:2:0
Битовая глубина                          : 8 бит
Тип развёртки                            : Прогрессивная
Бит/(Пиксели*Кадры)                      : 0.168
Размер потока                            : 1,66 Гбайт (72%)
Заголовок                                : Sumerki.Saga.Novolunie.2009.BDRip.x264.potroks
Библиотека кодирования                   : x264 core 116 r2019M 9cc407d
Настройки программы                      : cabac=1 / ref=13 / deblock=1:-2:-2 / analyse=0x3:0x133 / me=umh / subme=10 / psy=1 / psy_rd=1.00:0.20 / mixed_ref=1 / me_range=32 / chroma_me=1 / trellis=2 / 8x8dct=1 / cqm=0 / deadzone=21,11 / fast_pskip=1 / chroma_qp_offset=-3 / threads=8 / sliced_threads=0 / nr=0 / decimate=1 / interlaced=0 / bluray_compat=0 / constrained_intra=0 / bframes=3 / b_pyramid=1 / b_adapt=2 / b_bias=0 / direct=3 / weightb=1 / open_gop=0 / weightp=2 / keyint=230 / keyint_min=23 / scenecut=40 / intra_refresh=0 / rc_lookahead=40 / rc=2pass / mbtree=1 / bitrate=1869 / ratetol=1.0 / qcomp=0.60 / qpmin=10 / qpmax=51 / qpstep=4 / cplxblur=20.0 / qblur=0.5 / ip_ratio=1.40 / aq=1:1.00
Язык                                     : English
Default                                  : Да
Forced                                   : Нет

Аудио #1
Идентификатор                            : 2
Формат                                   : AC-3
Формат/Информация                        : Audio Coding 3
Расширение режима                        : CM (complete main)
Параметр Endianness формата              : Big
Идентификатор кодека                     : A_AC3
Продолжительность                        : 2 ч. 10 м.
Вид битрейта                             : Постоянный
Битрейт                                  : 448 Кбит/сек
Каналы                                   : 6 каналов
Расположение каналов                     : Front: L C R, Side: L R, LFE
Частота                                  : 48,0 КГц
Битовая глубина                          : 16 бит
Метод сжатия                             : С потерями
Размер потока                            : 419 Мбайт (18%)
Заголовок                                : Дубляж [R5]
Язык                                     : Russian
Default                                  : Да
Forced                                   : Нет

Аудио #2
Идентификатор                            : 3
Формат                                   : AC-3
Формат/Информация                        : Audio Coding 3
Расширение режима                        : CM (complete main)
Параметр Endianness формата              : Big
Идентификатор кодека                     : A_AC3
Продолжительность                        : 2 ч. 10 м.
Вид битрейта                             : Постоянный
Битрейт                                  : 192 Кбит/сек
Каналы                                   : 2 канала
Расположение каналов                     : Front: L R
Частота                                  : 48,0 КГц
Битовая глубина                          : 16 бит
Метод сжатия                             : С потерями
Размер потока                            : 179 Мбайт (8%)
Заголовок                                : Оригинал
Язык                                     : English
Default                                  : Нет
Forced                                   : Нет

Текст #1
Идентификатор                            : 4
Формат                                   : UTF-8
Идентификатор кодека                     : S_TEXT/UTF8
Идентификатор кодека/Информация          : UTF-8 Plain Text
Язык                                     : Russian
Default                                  : Да
Forced                                   : Нет

Текст #2
Идентификатор                            : 5
Формат                                   : UTF-8
Идентификатор кодека                     : S_TEXT/UTF8
Идентификатор кодека/Информация          : UTF-8 Plain Text
Язык                                     : Ukrainian
Default                                  : Нет
Forced                                   : Нет

Текст #3
Идентификатор                            : 6
Формат                                   : UTF-8
Идентификатор кодека                     : S_TEXT/UTF8
Идентификатор кодека/Информация          : UTF-8 Plain Text
Язык                                     : English
Default                                  : Нет
Forced                                   : Нет


Cкриншоты из фильма:



Сумерки. Сага. Затмение / The Twilight Saga: Eclipse (2010)
«Все начинается с выбора...»
Русское название: Сумерки. Сага. Затмение
Оригинальное название: The Twilight Saga: Eclipse
Год выпуска: 2010
Производство: США
Жанр: фэнтези, драма, мелодрама, приключения
Перевод: Дубляж
Язык cубтитров: Русский, Английский
Вид субтитров: Вшитые отключаемые

Дата мировой премьеры: 24 июня 2010
Дата российской премьеры: 30 июня 2010, «West»
Дата выхода DVD релиза: 7 декабря 2010, «West Video»

Режиссер: Дэвид Слэйд
Продюсер: Вик Годфри, Грег Мурадиан, Карен Розенфельт
Актеры: Кристен Стюарт, Роберт Паттинсон, Тэйлор Лотнер, Эшли Грин, Келлан Латс, Питер Фасинелли, Брайс Даллас Ховард, Никки Рид, Ксавьер Сэмюэл, Билли Берк, Алекс Мераз, Чарли Бьюли

Описание фильма:
Сиэтл охвачен чередой таинственных убийств, а обуреваемая жаждой мести вампирша продолжает поиски Беллы, снова оказавшейся в смертельной опасности. Кроме того, находясь в эпицентре всех событий, Белла вынуждена делать выбор между любовью к Эдварду и дружбой с Джейкобом, зная что ее решение может послужить толчком к возобновлению давнего противостояния между вампирами и оборотнями. Помимо всего прочего, ей предстоит принять еще одно важное решение: жизнь или смерть, ведь окончание средней школы уже не за горами.

Автор рипа: potroks

Продолжительность: 02:10:38
Качество видео: BDRip

Видеокодек: MPEG-4 AVC/H.264
Битрейт видео: ~ 1877 Кбит/сек
Размер кадра: 1056x440 (2,40:1)
Аудио 1: 6 ch., 48 kHz, ~448.00 kbps | русский
Аудио 2: 2 ch., 48 kHz, ~192.00 kbps | английский


Код:

Общее
Уникальный идентификатор                 : 254967121083621241502310456234146400559 (0xBFD0E19F08AFCBBDB7BDAA6AAA52092F)
Полное имя                               : E:\Загрузка\Sumerki.Quadrology\Sumerki.Saga.Zatmenie.2010.BDRip.x264.potroks.mkv
Формат                                   : Matroska
Версия формата                           : Version 2
Размер файла                             : 2,18 Гбайт
Продолжительность                        : 2 ч. 3 м.
Общий поток                              : 2515 Кбит/сек
Название фильма                          : -=POTROKS=-
Дата кодирования                         : UTC 2011-11-24 01:00:33
Программа кодирования                    : mkvmerge v5.0.1 ('Es ist Sommer') built on Oct  9 2011 11:55:43
Библиотека кодирования                   : libebml v1.2.2 + libmatroska v1.3.0

Видео
Идентификатор                            : 1
Формат                                   : AVC
Формат/Информация                        : Advanced Video Codec
Профиль формата                          : High@L4.1
Параметр CABAC формата                   : Да
Параметр ReFrames формата                : 12 кадров
Идентификатор кодека                     : V_MPEG4/ISO/AVC
Продолжительность                        : 2 ч. 3 м.
Битрейт                                  : 1877 Кбит/сек
Ширина                                   : 1056 пикселей
Высота                                   : 440 пикселей
Соотношение сторон                       : 2,40:1
Режим частоты кадров                     : Переменный
Частота кадров                           : 23,976 кадра/сек
Цветовое пространство                    : YUV
Субдискретизация насыщенности            : 4:2:0
Битовая глубина                          : 8 бит
Тип развёртки                            : Прогрессивная
Бит/(Пиксели*Кадры)                      : 0.168
Размер потока                            : 1,58 Гбайт (73%)
Заголовок                                : Sumerki.Saga.Zatmenie.2010.BDRip.x264.potroks
Библиотека кодирования                   : x264 core 116 r2019M 9cc407d
Настройки программы                      : cabac=1 / ref=13 / deblock=1:-2:-2 / analyse=0x3:0x133 / me=umh / subme=10 / psy=1 / psy_rd=1.00:0.20 / mixed_ref=1 / me_range=32 / chroma_me=1 / trellis=2 / 8x8dct=1 / cqm=0 / deadzone=21,11 / fast_pskip=1 / chroma_qp_offset=-3 / threads=8 / sliced_threads=0 / nr=0 / decimate=1 / interlaced=0 / bluray_compat=0 / constrained_intra=0 / bframes=3 / b_pyramid=1 / b_adapt=2 / b_bias=0 / direct=3 / weightb=1 / open_gop=0 / weightp=2 / keyint=230 / keyint_min=23 / scenecut=40 / intra_refresh=0 / rc_lookahead=40 / rc=2pass / mbtree=1 / bitrate=1877 / ratetol=1.0 / qcomp=0.60 / qpmin=10 / qpmax=51 / qpstep=4 / cplxblur=20.0 / qblur=0.5 / ip_ratio=1.40 / aq=1:1.00
Язык                                     : English
Default                                  : Да
Forced                                   : Нет

Аудио #1
Идентификатор                            : 2
Формат                                   : AC-3
Формат/Информация                        : Audio Coding 3
Расширение режима                        : CM (complete main)
Параметр Endianness формата              : Big
Идентификатор кодека                     : A_AC3
Продолжительность                        : 2 ч. 3 м.
Вид битрейта                             : Постоянный
Битрейт                                  : 448 Кбит/сек
Каналы                                   : 6 каналов
Расположение каналов                     : Front: L C R, Side: L R, LFE
Частота                                  : 48,0 КГц
Битовая глубина                          : 16 бит
Метод сжатия                             : С потерями
Размер потока                            : 397 Мбайт (18%)
Заголовок                                : Rus Dub
Язык                                     : Russian
Default                                  : Да
Forced                                   : Нет

Аудио #2
Идентификатор                            : 3
Формат                                   : AC-3
Формат/Информация                        : Audio Coding 3
Расширение режима                        : CM (complete main)
Параметр Endianness формата              : Big
Идентификатор кодека                     : A_AC3
Продолжительность                        : 2 ч. 3 м.
Вид битрейта                             : Постоянный
Битрейт                                  : 192 Кбит/сек
Каналы                                   : 2 канала
Расположение каналов                     : Front: L R
Частота                                  : 48,0 КГц
Битовая глубина                          : 16 бит
Метод сжатия                             : С потерями
Размер потока                            : 170 Мбайт (8%)
Заголовок                                : Original
Язык                                     : English
Default                                  : Нет
Forced                                   : Нет

Текст #1
Идентификатор                            : 4
Формат                                   : UTF-8
Идентификатор кодека                     : S_TEXT/UTF8
Идентификатор кодека/Информация          : UTF-8 Plain Text
Язык                                     : Russian
Default                                  : Да
Forced                                   : Нет

Текст #2
Идентификатор                            : 5
Формат                                   : UTF-8
Идентификатор кодека                     : S_TEXT/UTF8
Идентификатор кодека/Информация          : UTF-8 Plain Text
Язык                                     : English
Default                                  : Нет
Forced                                   : Нет


Cкриншоты из фильма:



Сумерки. Сага. Рассвет: Часть 1 / The Twilight Saga: Breaking Dawn - Part 1(2011)
«Вечность - это только начало»
Русское название: Сумерки. Сага. Рассвет: Часть 1
Оригинальное название: The Twilight Saga: Breaking Dawn - Part 1
Год выпуска: 2011
Производство: США
Жанр: фэнтези, драма, мелодрама, приключения
Перевод: Дубляж
Язык cубтитров: Русский, Английский
Вид субтитров: Вшитые отключаемые

Дата мировой премьеры: 30 октября 2011
Дата российской премьеры: 17 ноября 2011, «West»
Дата выхода DVD релиза: 14 февраля 2012, «West Video»

Режиссер: Билл Кондон
Продюсер: Вик Годфри, Стефани Майер, Карен Розенфельт
Актеры: Кристен Стюарт, Роберт Паттинсон, Тэйлор Лотнер, Билли Бёрк, Питер Фачинелли, Элизабет Ризер, Келлан Латс, Никки Рид, Джексон Рэтбоун, Эшли Грин, Джил Бирмингем, Сара Кларк, Ти Олссон, Кристиан Слоун, Джеймс Пиццинато, Йен Хэрмон, Гэбриел Картер, Анна Кендрик, Кристиан Серратос, Джастин Чон, Майкл Уэлш, Майкл Шин, Кристофер Хейердал, Джейми Кэмпбелл Бауэр, Кристиан Камарго, Миа Маэстро, Мэгги Грэйс, МайАнна Бёринг, Кэйси ЛаБоу, Анджело Ренай, Бу Бу Стюарт, Алекс Райс, Пол Бекер, Стефани Моусли, Кайова Гордон, Тайсон Хаусмен, Чэск Спенсер, Бронсон Пеллетье, Алекс Мераз, Джулия Джонс, Тинсел Кори,

Описание фильма:
В четвертой части Белла Свон оказывается перед непростым выбором — сохранить жизнь себе или своему ребенку (наполовину вампиру, наполовину человеку). Она решает оставить малыша, но Эдвард и остальные члены семьи Каллен категорически против. Помощи Белле ждать не от кого, но она приходит неожиданно, от того, от кого её совсем не ждали. Вдвоем Белла и Розали пытаются сохранить жизнь малышу, даже не догадываясь, к каким ужасающим последствиям это приведет.

Автор рипа: potroks

Продолжительность: 01:57:08
Качество видео: BDRip

Видеокодек: MPEG-4 AVC/H.264
Битрейт видео: ~ 2124 Кбит/сек
Размер кадра: 1056x440 (2,40:1)
Аудио 1: 6 ch., 48 kHz, ~448.00 kbps | русский
Аудио 2: 2 ch., 48 kHz, ~192.00 kbps | английский


Код:

Общее
Уникальный идентификатор                 : 223654741476140086221912312863711731322 (0xA842561D15DE9A00937896023CA29E7A)
Полное имя                               : E:\Загрузка\Sumerki.Quadrology\Sumerki.Saga.Rassvet.I.2011.D.HDRip.x264.potroks.mkv
Формат                                   : Matroska
Версия формата                           : Version 2
Размер файла                             : 2,26 Гбайт
Продолжительность                        : 1 ч. 57 м.
Общий поток                              : 2764 Кбит/сек
Название фильма                          : -=POTROKS=-
Дата кодирования                         : UTC 2012-02-11 04:29:03
Программа кодирования                    : mkvmerge v5.2.1 ('A Far Off Place') built on Feb  6 2012 10:08:15
Библиотека кодирования                   : libebml v1.2.3 + libmatroska v1.3.0

Видео
Идентификатор                            : 1
Формат                                   : AVC
Формат/Информация                        : Advanced Video Codec
Профиль формата                          : High@L4.1
Параметр CABAC формата                   : Да
Параметр ReFrames формата                : 7 кадров
Идентификатор кодека                     : V_MPEG4/ISO/AVC
Продолжительность                        : 1 ч. 57 м.
Битрейт                                  : 2124 Кбит/сек
Ширина                                   : 1056 пикселей
Высота                                   : 440 пикселей
Соотношение сторон                       : 2,40:1
Соотношение сторон в оригинале           : 2,40:1
Режим частоты кадров                     : Переменный
Частота кадров                           : 23,976 кадра/сек
Цветовое пространство                    : YUV
Субдискретизация насыщенности            : 4:2:0
Битовая глубина                          : 8 бит
Тип развёртки                            : Прогрессивная
Бит/(Пиксели*Кадры)                      : 0.191
Размер потока                            : 1,69 Гбайт (75%)
Заголовок                                : Sumerki.Saga.Rassvet.I.2011.Dt.HDRip.x264.potroks
Библиотека кодирования                   : x264 core 116 r2019M 9cc407d
Настройки программы                      : cabac=1 / ref=8 / deblock=1:-2:-1 / analyse=0x3:0x133 / me=umh / subme=9 / psy=1 / psy_rd=1.00:0.20 / mixed_ref=1 / me_range=42 / chroma_me=1 / trellis=1 / 8x8dct=1 / cqm=0 / deadzone=21,11 / fast_pskip=0 / chroma_qp_offset=-3 / threads=8 / sliced_threads=0 / nr=0 / decimate=1 / interlaced=0 / bluray_compat=0 / constrained_intra=0 / bframes=10 / b_pyramid=1 / b_adapt=2 / b_bias=0 / direct=3 / weightb=1 / open_gop=0 / weightp=2 / keyint=230 / keyint_min=23 / scenecut=45 / intra_refresh=0 / rc_lookahead=40 / rc=2pass / mbtree=1 / bitrate=2124 / ratetol=1.0 / qcomp=0.60 / qpmin=10 / qpmax=51 / qpstep=4 / cplxblur=20.0 / qblur=0.5 / ip_ratio=1.40 / aq=1:1.20
Язык                                     : English
Default                                  : Да
Forced                                   : Нет

Аудио #1
Идентификатор                            : 2
Формат                                   : AC-3
Формат/Информация                        : Audio Coding 3
Расширение режима                        : CM (complete main)
Параметр Endianness формата              : Big
Идентификатор кодека                     : A_AC3
Продолжительность                        : 1 ч. 57 м.
Вид битрейта                             : Постоянный
Битрейт                                  : 448 Кбит/сек
Каналы                                   : 6 каналов
Расположение каналов                     : Front: L C R, Side: L R, LFE
Частота                                  : 48,0 КГц
Битовая глубина                          : 16 бит
Метод сжатия                             : С потерями
Размер потока                            : 375 Мбайт (16%)
Заголовок                                : Dub [AC3, 5.1 ch., 448 kbps]
Язык                                     : Russian
Default                                  : Да
Forced                                   : Да

Аудио #2
Идентификатор                            : 3
Формат                                   : AC-3
Формат/Информация                        : Audio Coding 3
Расширение режима                        : CM (complete main)
Параметр Endianness формата              : Big
Идентификатор кодека                     : A_AC3
Продолжительность                        : 1 ч. 57 м.
Вид битрейта                             : Постоянный
Битрейт                                  : 192 Кбит/сек
Каналы                                   : 2 канала
Расположение каналов                     : Front: L R
Частота                                  : 48,0 КГц
Битовая глубина                          : 16 бит
Метод сжатия                             : С потерями
Размер потока                            : 161 Мбайт (7%)
Заголовок                                : Original [AC3, 2.0 ch., 192 kbps]
Язык                                     : English
Default                                  : Нет
Forced                                   : Нет

Текст #1
Идентификатор                            : 4
Формат                                   : UTF-8
Идентификатор кодека                     : S_TEXT/UTF8
Идентификатор кодека/Информация          : UTF-8 Plain Text
Заголовок                                : Forced
Язык                                     : English
Default                                  : Нет
Forced                                   : Нет

Текст #2
Идентификатор                            : 5
Формат                                   : UTF-8
Идентификатор кодека                     : S_TEXT/UTF8
Идентификатор кодека/Информация          : UTF-8 Plain Text
Заголовок                                : Full
Язык                                     : English
Default                                  : Нет
Forced                                   : Нет

Текст #3
Идентификатор                            : 6
Формат                                   : UTF-8
Идентификатор кодека                     : S_TEXT/UTF8
Идентификатор кодека/Информация          : UTF-8 Plain Text
Язык                                     : Russian
Default                                  : Нет
Forced                                   : Нет


Cкриншоты из фильма:


Сумерки. Сага. Рассвет: Часть 2 / The Twilight Saga: Breaking Dawn - Part 2(2012)
«Грандиозный финал бессмертной саги»
Русское название: Сумерки. Сага. Рассвет: Часть 2
Оригинальное название: The Twilight Saga: Breaking Dawn - Part 2
Год выпуска: 2012
Производство: США
Жанр: фэнтези, драма, мелодрама, приключения
Перевод: Дубляж
Язык cубтитров: Русский, Английский
Вид субтитров: Вшитые отключаемые

Дата мировой премьеры: 14 ноября 2012
Дата российской премьеры: 15 ноября 2012, «West»
Дата выхода DVD релиза: 5 марта 2013, «West Video»

Режиссер: Билл Кондон
Продюсер: Вик Годфри, Стефани Майер, Карен Розенфельт
Актеры: Кристен Стюарт, Роберт Паттинсон, Тэйлор Лотнер, Питер Фачинелли, Элизабет Ризер, Эшли Грин, Джексон Рэтбоун, Келлан Латс, Никки Рид, Билли Бёрк

Описание фильма:
Белла, став вампиром, постепенно свыкается со своей новой природой. В этом ей помогают Эдвард и остальные члены семьи Калленов. К тому же теперь у Беллы есть дочь Ренесми и вечность впереди. Джейкоб, запечатленный с Ренесми, становится для девочки другом и наставником. Ненадолго для героев наступают спокойные, счастливые дни. Все заканчивается, когда вести о Ренесми доходят до Вольтури. «Обращение» детей строго запрещено в мире вампиров. Не зная о необычном происхождении Ренесми, Вольтури собирают армию и направляются в Форкс, чтобы уничтожить Калленов.

Автор рипа: potroks

Продолжительность: 01:55:12
Качество видео: BDRip

Видеокодек: MPEG-4 AVC/H.264
Битрейт видео: ~ 1942 Кбит/сек
Размер кадра: 1056x440 (2,40:1)
Аудио 1: 6 ch., 48 kHz, ~448.00 kbps | русский
Аудио 2: 6 ch., 48 kHz, ~384.00 kbps | английский


Код:

Общее
Уникальный идентификатор                 : 186733094516503544108924201566990720595 (0x8C7B7C5F99A3D0969D4B7FA1DE875E53)
Полное имя                               : E:\Загрузка\Sumerki.Quadrology\Sumerki.Saga.Rassvet.Chast.II.2012.D.BDRip.x264.potroks.mkv
Формат                                   : Matroska
Версия формата                           : Version 4 / Version 2
Размер файла                             : 2,23 Гбайт
Продолжительность                        : 1 ч. 55 м.
Общий поток                              : 2776 Кбит/сек
Название фильма                          : -=POTROKS=-
Дата кодирования                         : UTC 2013-03-12 19:38:09
Программа кодирования                    : mkvmerge v5.9.0 ('On The Loose') built on Dec 15 2012 16:39:58
Библиотека кодирования                   : libebml v1.3.0 + libmatroska v1.4.0

Видео
Идентификатор                            : 1
Формат                                   : AVC
Формат/Информация                        : Advanced Video Codec
Профиль формата                          : High@L4.1
Параметр CABAC формата                   : Да
Параметр ReFrames формата                : 9 кадров
Идентификатор кодека                     : V_MPEG4/ISO/AVC
Продолжительность                        : 1 ч. 55 м.
Битрейт                                  : 1942 Кбит/сек
Ширина                                   : 1056 пикселей
Высота                                   : 440 пикселей
Соотношение сторон                       : 2,40:1
Режим частоты кадров                     : Переменный
Частота кадров                           : 23,976 кадра/сек
Цветовое пространство                    : YUV
Субдискретизация насыщенности            : 4:2:0
Битовая глубина                          : 8 бит
Тип развёртки                            : Прогрессивная
Бит/(Пиксели*Кадры)                      : 0.174
Размер потока                            : 1,52 Гбайт (68%)
Заголовок                                : The Twilight Saga: Breaking Dawn - Part 2
Библиотека кодирования                   : x264 core 128 r2216M 198a7ea
Настройки программы                      : cabac=1 / ref=10 / deblock=1:-2:-1 / analyse=0x3:0x133 / me=umh / subme=11 / psy=1 / psy_rd=1.08:0.05 / mixed_ref=1 / me_range=32 / chroma_me=1 / trellis=2 / 8x8dct=1 / cqm=0 / deadzone=21,11 / fast_pskip=0 / chroma_qp_offset=-3 / threads=4 / lookahead_threads=1 / sliced_threads=0 / nr=0 / decimate=1 / interlaced=0 / bluray_compat=0 / constrained_intra=0 / bframes=11 / b_pyramid=1 / b_adapt=2 / b_bias=0 / direct=3 / weightb=1 / open_gop=1 / weightp=2 / keyint=240 / keyint_min=23 / scenecut=40 / intra_refresh=0 / rc_lookahead=200 / rc=2pass / mbtree=0 / bitrate=1942 / ratetol=1.0 / qcomp=0.70 / qpmin=0 / qpmax=69 / qpstep=4 / cplxblur=20.0 / qblur=0.5 / vbv_maxrate=20000 / vbv_bufsize=20000 / nal_hrd=none / ip_ratio=1.35 / pb_ratio=1.25 / aq=2:0.90
Язык                                     : English
Default                                  : Да
Forced                                   : Нет

Аудио #1
Идентификатор                            : 2
Формат                                   : AC-3
Формат/Информация                        : Audio Coding 3
Расширение режима                        : CM (complete main)
Параметр Endianness формата              : Big
Идентификатор кодека                     : A_AC3
Продолжительность                        : 1 ч. 55 м.
Вид битрейта                             : Постоянный
Битрейт                                  : 448 Кбит/сек
Каналы                                   : 6 каналов
Расположение каналов                     : Front: L C R, Side: L R, LFE
Частота                                  : 48,0 КГц
Битовая глубина                          : 16 бит
Метод сжатия                             : С потерями
Размер потока                            : 369 Мбайт (16%)
Заголовок                                : Dub | DD 5.1 @ 448 kbps
Язык                                     : Russian
Default                                  : Да
Forced                                   : Да

Аудио #2
Идентификатор                            : 3
Формат                                   : AC-3
Формат/Информация                        : Audio Coding 3
Расширение режима                        : CM (complete main)
Параметр Endianness формата              : Big
Идентификатор кодека                     : A_AC3
Продолжительность                        : 1 ч. 55 м.
Вид битрейта                             : Постоянный
Битрейт                                  : 384 Кбит/сек
Каналы                                   : 6 каналов
Расположение каналов                     : Front: L C R, Side: L R, LFE
Частота                                  : 48,0 КГц
Битовая глубина                          : 16 бит
Метод сжатия                             : С потерями
Задержка видео                           : 27 мс.
Размер потока                            : 316 Мбайт (14%)
Заголовок                                : Original | DD 5.1 @ 384 kbps
Язык                                     : English
Default                                  : Нет
Forced                                   : Нет

Текст #1
Идентификатор                            : 4
Формат                                   : UTF-8
Идентификатор кодека                     : S_TEXT/UTF8
Идентификатор кодека/Информация          : UTF-8 Plain Text
Язык                                     : English
Default                                  : Нет
Forced                                   : Нет

Текст #2
Идентификатор                            : 5
Формат                                   : UTF-8
Идентификатор кодека                     : S_TEXT/UTF8
Идентификатор кодека/Информация          : UTF-8 Plain Text
Язык                                     : Russian
Default                                  : Нет
Forced                                   : Нет

Меню
00:00:00.000                             : en:
00:08:04.066                             : en:
00:13:35.396                             : en:
00:18:36.073                             : en:
00:22:11.079                             : en:
00:30:03.343                             : en:
00:38:06.158                             : en:
00:44:23.619                             : en:
00:48:35.829                             : en:
00:52:31.439                             : en:
00:58:11.946                             : en:
01:02:10.351                             : en:
01:08:26.060                             : en:
01:11:38.502                             : en:
01:20:35.455                             : en:
01:24:57.509                             : en:
01:32:17.156                             : en:
01:38:08.966                             : en:


Cкриншоты из фильма:



Приятного просмотра

и не забываем говорить СПАСИБО...

Время раздачи: 24/7
до 15 скачавших..
[NNM-Club.ru]_Sumerki.Quadrology.torrent
 Торрент: Платиновая раздача  Зарегистрирован
 
Скачать


Примагнититься
 Зарегистрирован:   13 Мар 2013 10:50:00
 Размер:   11,1 GB  (
 Рейтинг:   4,6 (Голосов: 429)
 Поблагодарили:   1670
 Проверка:   Оформление проверено модератором 13 Мар 2013 13:35:21
Как cкачать  ·  Как раздать  ·  Правильно оформить  ·  Поднять ратио!  

_________________
Мне чужого не надо….Но свое я заберу, чье бы оно ни было!!!
baxter_hunter
Стаж: 9 лет
Сообщений: 56
Ratio: 9,575
3.08%
russia.gif
Качество отличное!!!
olgaga
Стаж: 6 лет 4 мес.
Сообщений: 2
Ratio: 0,232
40%
Почему не идет видео?
olgaga
Стаж: 6 лет 4 мес.
Сообщений: 2
Ratio: 0,232
40%
а, теперь все ок.
KatenaC
 
Стаж: 8 лет 5 мес.
Сообщений: 56
Ratio: 10,436
Поблагодарили: 453
100%
russia.gif
вот бы сюда и 5ю часть добавили...
Владимир Чибисов
Стаж: 7 лет 10 мес.
Сообщений: 14
Ratio: 2,693
100%
russia.gif
Блэйда на них на всех не хватает..
Zov72 ®
Стаж: 9 лет 2 мес.
Сообщений: 4743
Ratio: 110,504
Поблагодарили: 594644
100%
Откуда: Вольный кабан
wild_hogs.gif
Добавлена очередная часть Саги, можно скачать отдельно, можно перехешировать и докачать раздачу.
Оюбителям приятного просмотра!!!

_________________
Мне чужого не надо….Но свое я заберу, чье бы оно ни было!!!
Romanzexlive2
Стаж: 8 лет 4 мес.
Сообщений: 332
Ratio: 7,346
Раздал: 11,39 TB
Поблагодарили: 10969
100%
а расширенные версии будут???
alphaville0527
Стаж: 8 лет 1 мес.
Сообщений: 167
Ratio: 243,038
Поблагодарили: 2090
100%
russia.gif
Ошибка в описании первого фильма
hoyk
Стаж: 7 лет 7 мес.
Сообщений: 10
Ratio: 21,255
2.35%
afghanistan.gif
"Сумерки.Сага: Кардиология". з.ы. извиняюсь за оффтоп).
yuliyaMUR
 
Стаж: 6 лет 1 мес.
Сообщений: 154
Ratio: 191,525
100%
russia.gif
Вся сага в одном!! Спасибо, качество лучше, чем я у меня было!!

_________________
Зовите, пожалуйста на раздачу!!
k_kotsarev
Стаж: 9 лет 6 мес.
Сообщений: 235
Ratio: 34,447
100%
Откуда: г. Киев
ukraine.gif
Спасибо.
Art!P
Стаж: 8 лет 1 мес.
Сообщений: 307
Ratio: 44,871
100%
Популярные фильмы - хорошо раздаются)
беру. Спасибо

_________________
Тот кто всё время утверждает что он не дурак, вызывает подозрения по этому поводу.
kitacog
Стаж: 5 лет 9 мес.
Сообщений: 14
0%
Спасибо за раздачу!!!))

_________________

Мы не останавливаемся играть, потому что мы стареем; мы стареем, потому что перестаем играть.
dreamresh
Стаж: 8 лет 6 мес.
Сообщений: 83
Ratio: 0,373
100%
pirates.png
Сумерки.Сага: Квадрология / Twilight. Saga: Quadrology (2008-2012) BDRip [H.264]

тут же 5 фильмов. правильно будет
Сумерки.Сага: Пенталогия / Twilight. Saga: Pentalogy (2008-2012) BDRip [H.264]
Показать сообщения:   
Начать новую тему   Ответить на тему    Торрент-трекер NNM-Club -> Коллекции / *логии -> Зарубежное кино (коллекции / *логии) Часовой пояс: GMT + 3
Страницы:  1, 2  След.
Страница 1 из 2