Интеллигентный торрент-трекер

Нас вместе: 3 659 451 | Новости торрент-трекера | Как тут скачивать? | Как раздавать торренты? | Правила оформления

На танцевальной площадке / Leave It on the Floor (2011) DVDRip [EN]


 
 
RSS
Начать новую тему   Ответить на тему    Торрент-трекер NNM-Club -> Архив торрентов -> Архив Видео
Предыдущая тема :: Следующая тема  
Автор Сообщение
smaster67 ®
Покровитель талантов
Uploader 100+
 


Стаж: 5 лет 1 месяц
Сообщений: 3975
Ratio: 101,921
Поблагодарили: 93300
100%

Сообщение 07 Сен 2012 00:32:19  Заголовок сообщения: На танцевальной площадке / Leave It on the Floor (2011) DVDRip [EN] Ответить с цитатой

[EN] На танцевальной площадке / Leave It on the Floor (2011) DVDRip
Русское название: На танцевальной площадке
Оригинальное название: Leave It on the Floor
Год выпуска: 2011
Жанр: Мюзикл, Драма, Комедия

Описание фильма:
Фильм "На танцевальной площадке" посвящен документальной кинокартине "Париж в огне".
Главный герой - Бред - крадет машину своей матери и сбегает в Лос-Анджелес, где случайно встречает шумную компанию "Дома Известности". Первоначально ища только ночлег, Брэд заканчивает тем, что находит экстраординарный дом и заботливую семью в самом странном из мест...

Режиссер: Шелдон Ларри
Актеры: Эфраим Сайкес, Андре Майерс, Филлип Эвелин, Камерон Коа

Продолжительность: 01:46:08
Перевод: Отсутствует
Язык: Английский



Видеокодек: Xvid
Битрейт видео: ~1 903 Kbps
Размер кадра: 720x400
Качество видео: DVDRip
Аудиокодек: AC3 5.1
Битрейт аудио: 448 Kbps
Сэмпл: Ссылка
General
Complete name : D:\FFF\Leave.It.On.The.Floor.2012.Xvid.AC3.Legend-Rg\Leave.It.On.The.Floor.2012.Xvid.AC3.Legend-Rg.avi
Format : AVI
Format/Info : Audio Video Interleave
File size : 1.75 GiB
Duration : 1h 46mn
Overall bit rate : 2 358 Kbps

Video
ID : 0
Format : MPEG-4 Visual
Format profile : Advanced Simple@L5
Format settings, BVOP : 2
Format settings, QPel : No
Format settings, GMC : No warppoints
Format settings, Matrix : Default (H.263)
Codec ID : XVID
Codec ID/Hint : XviD
Duration : 1h 46mn
Bit rate : 1 903 Kbps
Width : 720 pixels
Height : 400 pixels
Display aspect ratio : 16:9
Frame rate : 23.976 fps
Color space : YUV
Chroma subsampling : 4:2:0
Bit depth : 8 bits
Scan type : Progressive
Compression mode : Lossy
Bits/(Pixel*Frame) : 0.276
Stream size : 1.41 GiB (81%)
Writing library : XviD 1.2.1 (UTC 2008-12-04)

Audio
ID : 1
Format : AC-3
Format/Info : Audio Coding 3
Mode extension : CM (complete main)
Format settings, Endianness : Big
Codec ID : 2000
Duration : 1h 46mn
Bit rate mode : Constant
Bit rate : 448 Kbps
Channel(s) : 6 channels
Channel positions : Front: L C R, Side: L R, LFE
Sampling rate : 48.0 KHz
Bit depth : 16 bits
Compression mode : Lossy
Stream size : 340 MiB (19%)
Alignment : Aligned on interleaves
Interleave, duration : 64 ms (1.53 video frames)
Interleave, preload duration : 192 ms
Title : VTS_01_1 T80 3_2ch 448Kbps DELAY 0ms_new
Скриншоты:


Время раздачи: с 13:00 до 23:00
[NNM-Club.ru]_Leave.It.On.The.Floor..torrent
 Торрент: Золотая раздача  Зарегистрирован
 
Примагнититься

Зарегистрируйтесь и скачайте торрент!
 Зарегистрирован:   07 Сен 2012 00:32:19
 Размер:   1,75 GB  (
 Рейтинг:    (Голосов: 5)
 Поблагодарили:   8
 Проверка:   Оформление проверено модератором 08 Сен 2012 00:15:51
Как cкачать  ·  Как раздать  ·  Правильно оформить  ·  Поднять ратио!  
Сообщение 22 Июн 2013 11:41:34

Топик был перенесен из форума Фильмы в оригинале в форум Архив Видео


batonchik
Показать сообщения:   
Начать новую тему   Ответить на тему    Торрент-трекер NNM-Club -> Архив торрентов -> Архив Видео Часовой пояс: GMT + 4
Страница 1 из 1