Интеллигентный торрент-трекер
Нас вместе: 3 821 271 | Новости торрент-трекера | Как тут скачивать? | Как раздавать торренты? | Правила оформления

Скачать бесплатно торрент Дверь / The Door (2012) DVDRip [EN] torrent download


 
 
RSS
Начать новую тему   Ответить на тему    Торрент-трекер NNM-Club -> Зарубежное кино -> Фильмы в оригинале
Предыдущая тема :: Следующая тема 
Автор Сообщение
smaster67 ®
Покровитель талантов
Uploader 100+
 
Стаж: 5 лет 3 мес.
Сообщений: 4103
Ratio: 104,753
Поблагодарили: 98431
100%
Сообщение 04 Сен 2012 22:04:13  Заголовок сообщения: Дверь / The Door (2012) DVDRip [EN] Ответить с цитатой

[EN] Дверь / The Door (2012) DVDRip
Русское название: Дверь
Оригинальное название: The Door
Год выпуска: 2012
Жанр: Драма

Описание фильма:
В центре драматических событий, разворачивающихся в Венгрии 1960-х, — отношения между молодой писательницей и ее квартирной хозяйкой — пожилой женщиной по имени Эмерэнс. Безмолвная и неприветливая, со странными привычками, она — загадка для окружающих, а ее личная жизнь — тайна за семью печатями. И только когда в жизни молодой писательницы случается трагедия, Эмерэнс приоткрывает ей тайны своего прошлого.

Режиссер: Иштван Сабо
Актеры: Хелен Миррен, Мартина Гедек, Карой Эперьеш, Габор Конц, Эникё Бёрчёк

Продолжительность: 01:34:06
Перевод: Отсутствует
Язык: Английский



Видеокодек: Xvid
Битрейт видео: ~913 Kbps
Размер кадра: 640x352
Качество видео: DVDRip
Аудиокодек: MP3 2.0
Битрейт аудио: 115 Kbps
Сэмпл: Ссылка
General
Complete name : D:\FFF\The.Door.2012.DVDRip.XViD-PLAYNOW\The.Door.2012.DVDRip.XViD-PLAYNOW.avi
Format : AVI
Format/Info : Audio Video Interleave
File size : 700 MiB
Duration : 1h 34mn
Overall bit rate mode : Variable
Overall bit rate : 1 040 Kbps
Writing application : VirtualDubMod 1.5.4.1 (build 2178/release)
Writing library : VirtualDubMod build 2178/release

Video
ID : 0
Format : MPEG-4 Visual
Format profile : Advanced Simple@L5
Format settings, BVOP : 1
Format settings, QPel : No
Format settings, GMC : No warppoints
Format settings, Matrix : Custom
Codec ID : XVID
Codec ID/Hint : XviD
Duration : 1h 34mn
Bit rate : 913 Kbps
Width : 640 pixels
Height : 352 pixels
Display aspect ratio : 16:9
Frame rate : 25.000 fps
Color space : YUV
Chroma subsampling : 4:2:0
Bit depth : 8 bits
Scan type : Progressive
Compression mode : Lossy
Bits/(Pixel*Frame) : 0.162
Stream size : 614 MiB (88%)
Writing library : XviD 64

Audio
ID : 1
Format : MPEG Audio
Format version : Version 1
Format profile : Layer 3
Mode : Joint stereo
Mode extension : MS Stereo
Codec ID : 55
Codec ID/Hint : MP3
Duration : 1h 34mn
Bit rate mode : Variable
Bit rate : 115 Kbps
Nominal bit rate : 128 Kbps
Channel(s) : 2 channels
Sampling rate : 48.0 KHz
Compression mode : Lossy
Delay relative to video : 6s 960ms
Stream size : 77.3 MiB (11%)
Alignment : Split accross interleaves
Interleave, duration : 24 ms (0.60 video frame)
Interleave, preload duration : 1689 ms
Writing library : LAME3.98r
Encoding settings : -m j -V 4 -q 2 -lowpass 17 --abr 128
Language : English
Скриншоты:


Время раздачи: С 13:00 до 23:00
[NNM-Club.ru]_The.Door..torrent
 Торрент: Золотая раздача  Зарегистрирован
 
Примагнититься

Зарегистрируйтесь и скачайте торрент!
 Зарегистрирован:   04 Сен 2012 22:04:13
 Размер:   700 MB  (
 Рейтинг:    (Голосов: 7)
 Поблагодарили:   16
 Проверка:   Оформление проверено модератором 04 Сен 2012 22:33:10
Как cкачать  ·  Как раздать  ·  Правильно оформить  ·  Поднять ратио!  
Показать сообщения:   
Начать новую тему   Ответить на тему    Торрент-трекер NNM-Club -> Зарубежное кино -> Фильмы в оригинале Часовой пояс: GMT + 4
Страница 1 из 1