Интеллигентный торрент-трекер

Нас вместе: 3 651 841 | Новости торрент-трекера | Как тут скачивать? | Как раздавать торренты? | Правила оформления

Скачать бесплатно торрент Ugly Kid Joe - 3 Albums, 2 Compilations, 3 Singles & EPs (1991 - 2012) [FLAC|Lossless]<Hard Rock, Alternative> torrent download


 
 
RSS
Начать новую тему   Ответить на тему    Торрент-трекер NNM-Club -> Rock, Alternative, Punk, Metal -> Hard Rock (Lossless)
Предыдущая тема :: Следующая тема 
Автор Сообщение
alex1248 ®
DG Win&Soft
 


Стаж: 4 года 11 мес.
Сообщений: 1239
Ratio: 543,022
Раздал: 11,41 TB
Поблагодарили: 8405
100%
russia.gif

Сообщение 23 Авг 2012 16:19:22  Заголовок сообщения: Ugly Kid Joe - 3 Albums, 2 Compilations, 3 Singles & EPs (1991 - 2012) [FLAC|Lossless]<Hard Rock, Alternative> Ответить с цитатой

Ugly Kid Joe - 3 Albums, 2 Compilations, 3 Singles & EPs (1991 - 2012)
Год: 1991 - 2012
Жанр: Hard Rock, Alternative
Продолжительность: 06:01:20

Кодек: FLAC
Битрейт: Lossless

Трек лист:
Albums
Треклист:

01. Neighbor (4:47)
02. Goddamn Devil (4:54)
03. Come Tomorrow (4:56)
04. Panhandlin' Prince (5:43)
05. Busy Bee (4:10)
06. Don't Go (4:33)
07. So Damn Cool (4:27)
08. Same Side (4:50)
09. Cats In The Cradle (4:02)
10. I'll Keep Tryin' (4:59)
11. Everything About You (4:20)
12. Madman ('92 re-mix) (3:37)
13. Mr. Recordman (4:06)
Код:
Exact Audio Copy V0.99 prebeta 5 from 4. May 2009

EAC extraction logfile from 5. May 2012, 22:57

Ugly Kid Joe / America's Least Wanted

Used drive  : ATAPI   iHBS112   2   Adapter: 1  ID: 1

Read mode               : Secure
Utilize accurate stream : Yes
Defeat audio cache      : Yes
Make use of C2 pointers : No

Read offset correction                      : 6
Overread into Lead-In and Lead-Out          : No
Fill up missing offset samples with silence : Yes
Delete leading and trailing silent blocks   : No
Null samples used in CRC calculations       : Yes
Used interface                              : Native Win32 interface for Win NT & 2000
Gap handling                                : Appended to previous track

Used output format              : User Defined Encoder
Selected bitrate                : 768 kBit/s
Quality                         : High
Add ID3 tag                     : No
Command line compressor         : C:\Program Files\Exact Audio Copy\FLAC\FLAC.EXE
Additional command line options : -6 -V -T "ARTIST=%a" -T "TITLE=%t" -T "ALBUM=%g" -T "DATE=%y" -T "TRACKNUMBER=%n" -T "GENRE=%m" -T "COMMENT=%e" %s -o %d

TOC of the extracted CD

     Track |   Start  |  Length  | Start sector | End sector
    ---------------------------------------------------------
        1  |  0:00.00 |  4:46.52 |         0    |    21501
        2  |  4:46.52 |  4:54.08 |     21502    |    43559
        3  |  9:40.60 |  4:55.45 |     43560    |    65729
        4  | 14:36.30 |  5:42.40 |     65730    |    91419
        5  | 20:18.70 |  4:10.32 |     91420    |   110201
        6  | 24:29.27 |  4:32.68 |    110202    |   130669
        7  | 29:02.20 |  4:27.10 |    130670    |   150704
        8  | 33:29.30 |  4:50.10 |    150705    |   172464
        9  | 38:19.40 |  4:02.12 |    172465    |   190626
       10  | 42:21.52 |  4:59.15 |    190627    |   213066
       11  | 47:20.67 |  4:20.23 |    213067    |   232589
       12  | 51:41.15 |  3:37.22 |    232590    |   248886
       13  | 55:18.37 |  4:06.28 |    248887    |   267364

Track  1

     Filename H:\Torrents.ru\Ugly Kid Joe\Albums\1992 - America's Least Wanted\01. Ugly Kid Joe - Neighbor.wav

     Pre-gap length  0:00:02.00

     Peak level 100.0 %
     Track quality 100.0 %
     Test CRC 7A3D665B
     Copy CRC 7A3D665B
     Accurately ripped (confidence 8)  [372E31AB]
     Copy OK

Track  2

     Filename H:\Torrents.ru\Ugly Kid Joe\Albums\1992 - America's Least Wanted\02. Ugly Kid Joe - Goddamn Devil.wav

     Peak level 100.0 %
     Track quality 100.0 %
     Test CRC EE211405
     Copy CRC EE211405
     Accurately ripped (confidence 8)  [65F977F1]
     Copy OK

Track  3

     Filename H:\Torrents.ru\Ugly Kid Joe\Albums\1992 - America's Least Wanted\03. Ugly Kid Joe - Come Tomorrow.wav

     Peak level 100.0 %
     Track quality 100.0 %
     Test CRC 239EFBFD
     Copy CRC 239EFBFD
     Accurately ripped (confidence 8)  [F96C654D]
     Copy OK

Track  4

     Filename H:\Torrents.ru\Ugly Kid Joe\Albums\1992 - America's Least Wanted\04. Ugly Kid Joe - Panhandlin' Prince.wav

     Pre-gap length  0:00:01.65

     Peak level 100.0 %
     Track quality 100.0 %
     Test CRC 80EB8BA6
     Copy CRC 80EB8BA6
     Accurately ripped (confidence 8)  [DE47699B]
     Copy OK

Track  5

     Filename H:\Torrents.ru\Ugly Kid Joe\Albums\1992 - America's Least Wanted\05. Ugly Kid Joe - Busy Bee.wav

     Peak level 100.0 %
     Track quality 100.0 %
     Test CRC 97D7B3FE
     Copy CRC 97D7B3FE
     Accurately ripped (confidence 8)  [E6D5D3F7]
     Copy OK

Track  6

     Filename H:\Torrents.ru\Ugly Kid Joe\Albums\1992 - America's Least Wanted\06. Ugly Kid Joe - Don't Go.wav

     Peak level 93.9 %
     Track quality 100.0 %
     Test CRC 704B07F0
     Copy CRC 704B07F0
     Accurately ripped (confidence 8)  [C8D894CC]
     Copy OK

Track  7

     Filename H:\Torrents.ru\Ugly Kid Joe\Albums\1992 - America's Least Wanted\07. Ugly Kid Joe - So Damn Cool.wav

     Peak level 100.0 %
     Track quality 100.0 %
     Test CRC B22A0003
     Copy CRC B22A0003
     Accurately ripped (confidence 8)  [DEC56B59]
     Copy OK

Track  8

     Filename H:\Torrents.ru\Ugly Kid Joe\Albums\1992 - America's Least Wanted\08. Ugly Kid Joe - Same Side.wav

     Peak level 100.0 %
     Track quality 100.0 %
     Test CRC 34DCB877
     Copy CRC 34DCB877
     Accurately ripped (confidence 6)  [3005C0C0]
     Copy OK

Track  9

     Filename H:\Torrents.ru\Ugly Kid Joe\Albums\1992 - America's Least Wanted\09. Ugly Kid Joe - Cats In The Cradle.wav

     Peak level 100.0 %
     Track quality 100.0 %
     Test CRC 8BD200F2
     Copy CRC 8BD200F2
     Accurately ripped (confidence 7)  [76682AC4]
     Copy OK

Track 10

     Filename H:\Torrents.ru\Ugly Kid Joe\Albums\1992 - America's Least Wanted\10. Ugly Kid Joe - I'll Keep Tryin'.wav

     Peak level 100.0 %
     Track quality 99.9 %
     Test CRC D1CAEC56
     Copy CRC D1CAEC56
     Accurately ripped (confidence 7)  [98BAB2C5]
     Copy OK

Track 11

     Filename H:\Torrents.ru\Ugly Kid Joe\Albums\1992 - America's Least Wanted\11. Ugly Kid Joe - Everything About You.wav

     Peak level 100.0 %
     Track quality 99.9 %
     Test CRC BC2934B3
     Copy CRC BC2934B3
     Accurately ripped (confidence 7)  [F878D6C3]
     Copy OK

Track 12

     Filename H:\Torrents.ru\Ugly Kid Joe\Albums\1992 - America's Least Wanted\12. Ugly Kid Joe - Madman ('92 re-mix).wav

     Peak level 100.0 %
     Track quality 99.7 %
     Test CRC 4EEDBD9A
     Copy CRC 4EEDBD9A
     Accurately ripped (confidence 8)  [D3A11C35]
     Copy OK

Track 13

     Filename H:\Torrents.ru\Ugly Kid Joe\Albums\1992 - America's Least Wanted\13. Ugly Kid Joe - Mr. Recordman.wav

     Peak level 94.7 %
     Track quality 99.0 %
     Test CRC A21A0F1D
     Copy CRC A21A0F1D
     Accurately ripped (confidence 5)  [37521D36]
     Copy OK

All tracks accurately ripped

No errors occurred

End of status report
Код:
-----------------------

DON'T MODIFY THIS FILE

-----------------------

PERFORMER: auCDtect Task Manager, ver. 1.5.1RC6 build 1.5.1.7
Copyright (c) 2008-2010 y-soft. All rights reserved
http://y-soft.org

ANALYZER: auCDtect: CD records authenticity detector, version 0.8.2
Copyright (c) 2004 Oleg Berngardt. All rights reserved.
Copyright (c) 2004 Alexander Djourik. All rights reserved.

FILE: 13. Ugly Kid Joe - Mr. Recordman.flac
  Size: 28411030 Hash: 69D67F94D6417D77BE47BD33CC20F2CB Accuracy: -m0
  Conclusion: CDDA 100%
  Signature: 846477DEDE2DF2F2C99848CA95D566FB63577995
FILE: 12. Ugly Kid Joe - Madman ('92 re-mix).flac
  Size: 27016846 Hash: ED01D8C121DAC32E202B2E96AA7B31E6 Accuracy: -m0
  Conclusion: CDDA 100%
  Signature: 157DD35B62684432C357567F5DD59AEA83E45830
FILE: 11. Ugly Kid Joe - Everything About You.flac
  Size: 31002461 Hash: 40945574B9D0BDF642478C2DA06A94B5 Accuracy: -m0
  Conclusion: CDDA 100%
  Signature: B35EAFE28FF2FBF9545C91009D6654F0A504A082
FILE: 10. Ugly Kid Joe - I'll Keep Tryin'.flac
  Size: 33990297 Hash: 3D39D74EE4B27681D3450B79A348146D Accuracy: -m0
  Conclusion: CDDA 100%
  Signature: F67E975D7F62303047165DBF28363A28ED849BAA
FILE: 09. Ugly Kid Joe - Cats In The Cradle.flac
  Size: 28623755 Hash: F1CF31B0D64D72521BA6112C91CCC7F3 Accuracy: -m0
  Conclusion: CDDA 100%
  Signature: ED5CCCCBA7F88585EF6483556598425B6ED8A50D
FILE: 08. Ugly Kid Joe - Same Side.flac
  Size: 34064829 Hash: 7C0137C5557892A16267A60AD4D10CCB Accuracy: -m0
  Conclusion: CDDA 100%
  Signature: E01E4858891D918ED4FE6436455E8F07F4906EBB
FILE: 07. Ugly Kid Joe - So Damn Cool.flac
  Size: 31595221 Hash: BED98DB0F21166D8AF18C633A55131AC Accuracy: -m0
  Conclusion: CDDA 99%
  Signature: CB7FB53347627F20882F525BDA525A7B601CFB53
FILE: 06. Ugly Kid Joe - Don't Go.flac
  Size: 33675963 Hash: 0B7BA661D6BF6FE82AD8EF0F2D85FFC9 Accuracy: -m0
  Conclusion: CDDA 100%
  Signature: 70BCB7E9A20360E5E089C42E29D10181F66D8A61
FILE: 05. Ugly Kid Joe - Busy Bee.flac
  Size: 29235371 Hash: 2533CE2113A22573090CF08DC74F8162 Accuracy: -m0
  Conclusion: CDDA 100%
  Signature: 7DA1942D818AB9C186BE25D6620D913E0825B27A
FILE: 04. Ugly Kid Joe - Panhandlin' Prince.flac
  Size: 42595173 Hash: 017FF618136383D38FA80378B51D6276 Accuracy: -m0
  Conclusion: CDDA 99%
  Signature: 323BACDC978FD015B8064722BF7ADC4B6D7739FB
FILE: 03. Ugly Kid Joe - Come Tomorrow.flac
  Size: 35511204 Hash: 64889C828E566F71A5CD16C4282CE54F Accuracy: -m0
  Conclusion: CDDA 100%
  Signature: 11F0A2E22D6343A2CC2F442032B60F25AFF32AF7
FILE: 02. Ugly Kid Joe - Goddamn Devil.flac
  Size: 34441527 Hash: F129776045195187B4FF5A4FC6A499AA Accuracy: -m0
  Conclusion: CDDA 100%
  Signature: BAE49EFB17603B3094C9CBE363F8BDF97953C0D8
FILE: 01. Ugly Kid Joe - Neighbor.flac
  Size: 34854861 Hash: CB155EA30E7C11B921C4B89F2D82EA42 Accuracy: -m0
  Conclusion: CDDA 100%
  Signature: D5721CF8EC97CD7C0126CC35524EC46CB6C35C91
Продолжительность: 00:59:25
Треклист:

01. Intro (1:50)
02. God (2:53)
03. Tomorrow's World (4:17)
04. Clover (3:34)
05. C.U.S.T. (2:59)
06. Milkman's Son (3:51)
07. Suckerpath (4:53)
08. Cloudy Skies (4:25)
09. Jesus Rode A Harley (3:14)
10. 10/10 (3:36)
11. V.I.P. (3:46)
12. Oompa (2:05)
13. Candle Song (2:57)
14. Slower Than Nowhere (4:59)
Код:
Exact Audio Copy V0.99 prebeta 5 from 4. May 2009

EAC extraction logfile from 1. June 2011, 20:41

Ugly Kid Joe / Menace To Sobriety

Used drive  : _NEC    DVD_RW ND-3520A   Adapter: 0  ID: 2

Read mode               : Secure
Utilize accurate stream : Yes
Defeat audio cache      : Yes
Make use of C2 pointers : No

Read offset correction                      : 48
Overread into Lead-In and Lead-Out          : No
Fill up missing offset samples with silence : Yes
Delete leading and trailing silent blocks   : No
Null samples used in CRC calculations       : Yes
Used interface                              : Native Win32 interface for Win NT & 2000
Gap handling                                : Appended to previous track

Used output format              : User Defined Encoder
Selected bitrate                : 320 kBit/s
Quality                         : High
Add ID3 tag                     : No
Command line compressor         : D:\Program Files\FLAC_frontend\flac.exe
Additional command line options : -8 -V -T "ARTIST=%a" -T "TITLE=%t" -T "ALBUM=%g" -T "DATE=%y" -T "TRACKNUMBER=%n" -T "GENRE=%m" -T "COMMENT=EAC FLAC -8" %s

TOC of the extracted CD

     Track |   Start  |  Length  | Start sector | End sector
    ---------------------------------------------------------
        1  |  0:00.00 |  1:50.25 |         0    |     8274
        2  |  1:50.25 |  2:52.47 |      8275    |    21221
        3  |  4:42.72 |  4:17.23 |     21222    |    40519
        4  |  9:00.20 |  3:34.25 |     40520    |    56594
        5  | 12:34.45 |  2:58.42 |     56595    |    69986
        6  | 15:33.12 |  3:51.28 |     69987    |    87339
        7  | 19:24.40 |  4:52.40 |     87340    |   109279
        8  | 24:17.05 |  4:24.67 |    109280    |   129146
        9  | 28:41.72 |  3:14.25 |    129147    |   143721
       10  | 31:56.22 |  3:35.68 |    143722    |   159914
       11  | 35:32.15 |  3:45.45 |    159915    |   176834
       12  | 39:17.60 |  2:04.40 |    176835    |   186174
       13  | 41:22.25 |  2:57.37 |    186175    |   199486
       14  | 44:19.62 |  4:58.45 |    199487    |   221881

Track  1

     Filename H:\Torrents.ru\Ugly Kid Joe\Albums\1995 - Manace To Sobriety\01. Ugly Kid Joe - Intro.wav

     Pre-gap length  0:00:02.00

     Peak level 95.3 %
     Track quality 100.0 %
     Test CRC E85A5D77
     Copy CRC E85A5D77
     Accurately ripped (confidence 2)  [76F326DE]
     Copy OK

Track  2

     Filename H:\Torrents.ru\Ugly Kid Joe\Albums\1995 - Manace To Sobriety\02. Ugly Kid Joe - God.wav

     Peak level 95.3 %
     Track quality 100.0 %
     Test CRC 4F74D7C1
     Copy CRC 4F74D7C1
     Accurately ripped (confidence 3)  [B4B74428]
     Copy OK

Track  3

     Filename H:\Torrents.ru\Ugly Kid Joe\Albums\1995 - Manace To Sobriety\03. Ugly Kid Joe - Tomorrow's World.wav

     Peak level 95.3 %
     Track quality 100.0 %
     Test CRC 9810C82B
     Copy CRC 9810C82B
     Accurately ripped (confidence 3)  [5B5007FA]
     Copy OK

Track  4

     Filename H:\Torrents.ru\Ugly Kid Joe\Albums\1995 - Manace To Sobriety\04. Ugly Kid Joe - Clover.wav

     Peak level 95.3 %
     Track quality 100.0 %
     Test CRC B549BB0C
     Copy CRC B549BB0C
     Accurately ripped (confidence 3)  [213EE4A8]
     Copy OK

Track  5

     Filename H:\Torrents.ru\Ugly Kid Joe\Albums\1995 - Manace To Sobriety\05. Ugly Kid Joe - C.U.S.T..wav

     Peak level 95.3 %
     Track quality 100.0 %
     Test CRC 08083D62
     Copy CRC 08083D62
     Accurately ripped (confidence 3)  [D32F0713]
     Copy OK

Track  6

     Filename H:\Torrents.ru\Ugly Kid Joe\Albums\1995 - Manace To Sobriety\06. Ugly Kid Joe - Milkman's Son.wav

     Peak level 95.3 %
     Track quality 100.0 %
     Test CRC 0C54B8F6
     Copy CRC 0C54B8F6
     Accurately ripped (confidence 3)  [D7F69453]
     Copy OK

Track  7

     Filename H:\Torrents.ru\Ugly Kid Joe\Albums\1995 - Manace To Sobriety\07. Ugly Kid Joe - Suckerpath.wav

     Peak level 95.3 %
     Track quality 99.9 %
     Test CRC 76F45A78
     Copy CRC 76F45A78
     Accurately ripped (confidence 3)  [2B9697E6]
     Copy OK

Track  8

     Filename H:\Torrents.ru\Ugly Kid Joe\Albums\1995 - Manace To Sobriety\08. Ugly Kid Joe - Cloudy Skies.wav

     Peak level 95.3 %
     Track quality 100.0 %
     Test CRC 89E2555D
     Copy CRC 89E2555D
     Accurately ripped (confidence 3)  [42A818A7]
     Copy OK

Track  9

     Filename H:\Torrents.ru\Ugly Kid Joe\Albums\1995 - Manace To Sobriety\09. Ugly Kid Joe - Jesus Rode A Harley.wav

     Peak level 95.3 %
     Track quality 100.0 %
     Test CRC C78B0F8E
     Copy CRC C78B0F8E
     Accurately ripped (confidence 3)  [3A21C817]
     Copy OK

Track 10

     Filename H:\Torrents.ru\Ugly Kid Joe\Albums\1995 - Manace To Sobriety\10. Ugly Kid Joe - 10,10.wav

     Peak level 95.3 %
     Track quality 100.0 %
     Test CRC 9B4CD3BD
     Copy CRC 9B4CD3BD
     Accurately ripped (confidence 3)  [7E123383]
     Copy OK

Track 11

     Filename H:\Torrents.ru\Ugly Kid Joe\Albums\1995 - Manace To Sobriety\11. Ugly Kid Joe - V.I.P..wav

     Peak level 95.3 %
     Track quality 100.0 %
     Test CRC 700C18C4
     Copy CRC 700C18C4
     Accurately ripped (confidence 3)  [EDB1AF05]
     Copy OK

Track 12

     Filename H:\Torrents.ru\Ugly Kid Joe\Albums\1995 - Manace To Sobriety\12. Ugly Kid Joe - Oompa.wav

     Peak level 95.3 %
     Track quality 99.9 %
     Test CRC AD0AEB4A
     Copy CRC AD0AEB4A
     Accurately ripped (confidence 3)  [87588DE2]
     Copy OK

Track 13

     Filename H:\Torrents.ru\Ugly Kid Joe\Albums\1995 - Manace To Sobriety\13. Ugly Kid Joe - Candle Song.wav

     Peak level 77.7 %
     Track quality 100.0 %
     Test CRC B6335A15
     Copy CRC B6335A15
     Accurately ripped (confidence 3)  [CA8E99B3]
     Copy OK

Track 14

     Filename H:\Torrents.ru\Ugly Kid Joe\Albums\1995 - Manace To Sobriety\14. Ugly Kid Joe - Slower Than Nowhere.wav

     Peak level 97.1 %
     Track quality 100.0 %
     Test CRC 796ED0EA
     Copy CRC 796ED0EA
     Accurately ripped (confidence 3)  [CCACC95E]
     Copy OK

All tracks accurately ripped

No errors occurred

End of status report
Код:
-----------------------

DON'T MODIFY THIS FILE

-----------------------

PERFORMER: auCDtect Task Manager, ver. 1.5.1RC6 build 1.5.1.7
Copyright (c) 2008-2010 y-soft. All rights reserved
http://y-soft.org

ANALYZER: auCDtect: CD records authenticity detector, version 0.8.2
Copyright (c) 2004 Oleg Berngardt. All rights reserved.
Copyright (c) 2004 Alexander Djourik. All rights reserved.

FILE: 14. Ugly Kid Joe - Slower Than Nowhere.flac
  Size: 38678970 Hash: A52AB6348A8238A90BA2AA624F255A17 Accuracy: -m0
  Conclusion: CDDA 100%
  Signature: 724CB82B78177D0973D328513072A6ACCD620BB4
FILE: 13. Ugly Kid Joe - Candle Song.flac
  Size: 16798661 Hash: 7437DCCCBC6ADBD46125772976CE28B8 Accuracy: -m0
  Conclusion: CDDA 100%
  Signature: 40B648D5E87C10AEC357E9397C5463C98ACB8A8B
FILE: 12. Ugly Kid Joe - Oompa.flac
  Size: 14493610 Hash: BE6C05045440219FAD4578B893C3A498 Accuracy: -m0
  Conclusion: CDDA 100%
  Signature: A39D198A4A19891A37F0444D1F5928AE6391BDEF
FILE: 11. Ugly Kid Joe - V.I.P..flac
  Size: 28788260 Hash: 91736CD04B63A9175183BDD05D95A895 Accuracy: -m0
  Conclusion: CDDA 99%
  Signature: FE925E337B56EF04CF49F601E2C3976B9AF63E05
FILE: 10. Ugly Kid Joe - 10,10.flac
  Size: 28045129 Hash: F26C23735C77A63BF849F3D3926F046C Accuracy: -m0
  Conclusion: CDDA 100%
  Signature: 9827C0226B8C0FC2DACB24FA2693B83B4BB52594
FILE: 09. Ugly Kid Joe - Jesus Rode A Harley.flac
  Size: 24936787 Hash: A410184163D33A9B34C8CB6F8E237551 Accuracy: -m0
  Conclusion: CDDA 100%
  Signature: 0C21A02FBC93A809F1D0703B02CA808C5D8B02DE
FILE: 08. Ugly Kid Joe - Cloudy Skies.flac
  Size: 31066474 Hash: C3B0CA4345F890808FA70782602075C9 Accuracy: -m0
  Conclusion: CDDA 100%
  Signature: D3A57735DCDC42E15E53AD50271876B32B3912A9
FILE: 07. Ugly Kid Joe - Suckerpath.flac
  Size: 38530219 Hash: BC19496D99151A3EB7EA78207F9C558C Accuracy: -m0
  Conclusion: CDDA 99%
  Signature: 6E8FDCB8BDB5302E359F768C4E1580F0C1FA7B46
FILE: 06. Ugly Kid Joe - Milkman's Son.flac
  Size: 29903763 Hash: 636BCD862A20638459F1E6CEDF2EB1B7 Accuracy: -m0
  Conclusion: CDDA 99%
  Signature: EA264B7C15403115CA0B0AA2B509E6D1113AECAA
FILE: 05. Ugly Kid Joe - C.U.S.T..flac
  Size: 24268684 Hash: 07A35D0833D0C4214394D6648EBC8D58 Accuracy: -m0
  Conclusion: CDDA 100%
  Signature: 70168A5A1D8999FBF9215A4EF223A3157FCA9144
FILE: 04. Ugly Kid Joe - Clover.flac
  Size: 28252741 Hash: C70F6664158720E7F161617AC0F51D36 Accuracy: -m0
  Conclusion: CDDA 100%
  Signature: 3F86F955CC14E680A0462AF6CAC9D732A69B0A30
FILE: 03. Ugly Kid Joe - Tomorrow's World.flac
  Size: 32693903 Hash: E25DCAB15805506472D80ADBB88AD36C Accuracy: -m0
  Conclusion: CDDA 100%
  Signature: 166DE966A6087466EB63DD6E815837A5BCD84AEE
FILE: 02. Ugly Kid Joe - God.flac
  Size: 23114085 Hash: F3120864195097F004166B4B6B0D4E2E Accuracy: -m0
  Conclusion: CDDA 99%
  Signature: 2333606F0BD325E29D160CA148BB4F2F8DBC8BC5
FILE: 01. Ugly Kid Joe - Intro.flac
  Size: 14170867 Hash: 53128AAB4DD7552499331E57CF1A59BA Accuracy: -m0
  Conclusion: CDDA 99%
  Signature: 1CB757F3A68BE4BB13FB71F137D65B81E9CED276
Продолжительность: 00:49:18
Треклист:

01. It's A Lie (3:00)
02. Dialogue (2:25)
03. Sandwich (2:45)
04. Rage Against The Answering Machine (1:38)
05. Would You Like To Be There (3:16)
06. Little Red Man (4:01)
07. Bicycle Wheels (2:00)
08. Father (3:30)
09. Undertow (4:29)
10. Shine (2:50)
11. Strange (4:21)
12. 12 Cents (5:25)
13. Sandwich (Vulgar Remix) (3:00)
14. Bicycle Wheels (Remix) (4:33)
Код:
Exact Audio Copy V0.99 prebeta 5 from 4. May 2009

EAC extraction logfile from 8. June 2011, 21:06

Ugly Kid Joe / Motel California (Japan)

Used drive  : _NEC    DVD_RW ND-3520A   Adapter: 0  ID: 2

Read mode               : Secure
Utilize accurate stream : Yes
Defeat audio cache      : Yes
Make use of C2 pointers : No

Read offset correction                      : 48
Overread into Lead-In and Lead-Out          : No
Fill up missing offset samples with silence : Yes
Delete leading and trailing silent blocks   : No
Null samples used in CRC calculations       : Yes
Used interface                              : Native Win32 interface for Win NT & 2000
Gap handling                                : Appended to previous track

Used output format              : User Defined Encoder
Selected bitrate                : 320 kBit/s
Quality                         : High
Add ID3 tag                     : No
Command line compressor         : D:\Program Files\FLAC_frontend\flac.exe
Additional command line options : -8 -V -T "ARTIST=%a" -T "TITLE=%t" -T "ALBUM=%g" -T "DATE=%y" -T "TRACKNUMBER=%n" -T "GENRE=%m" -T "COMMENT=EAC FLAC -8" %s

TOC of the extracted CD

     Track |   Start  |  Length  | Start sector | End sector
    ---------------------------------------------------------
        1  |  0:00.37 |  2:59.60 |        37    |    13521
        2  |  3:00.22 |  2:25.35 |     13522    |    24431
        3  |  5:25.57 |  2:45.03 |     24432    |    36809
        4  |  8:10.60 |  1:38.25 |     36810    |    44184
        5  |  9:49.10 |  3:16.20 |     44185    |    58904
        6  | 13:05.30 |  4:00.50 |     58905    |    76954
        7  | 17:06.05 |  1:59.52 |     76955    |    85931
        8  | 19:05.57 |  3:29.63 |     85932    |   101669
        9  | 22:35.45 |  4:29.22 |    101670    |   121866
       10  | 27:04.67 |  2:49.48 |    121867    |   134589
       11  | 29:54.40 |  4:20.47 |    134590    |   154136
       12  | 34:15.12 |  5:24.45 |    154137    |   178481
       13  | 39:39.57 |  3:00.13 |    178482    |   191994
       14  | 42:39.70 |  4:33.37 |    191995    |   212506

Track  1

     Filename H:\Torrents.ru\Ugly Kid Joe\Albums\1996 - Motel California (Japan)\01. Ugly Kid Joe - It's A Lie.wav

     Pre-gap length  0:00:02.37

     Peak level 96.3 %
     Track quality 100.0 %
     Test CRC BD9E54CE
     Copy CRC BD9E54CE
     Track not present in AccurateRip database
     Copy OK

Track  2

     Filename H:\Torrents.ru\Ugly Kid Joe\Albums\1996 - Motel California (Japan)\02. Ugly Kid Joe - Dialogue.wav

     Peak level 98.8 %
     Track quality 99.9 %
     Test CRC 09679953
     Copy CRC 09679953
     Track not present in AccurateRip database
     Copy OK

Track  3

     Filename H:\Torrents.ru\Ugly Kid Joe\Albums\1996 - Motel California (Japan)\03. Ugly Kid Joe - Sandwich.wav

     Peak level 98.8 %
     Track quality 99.9 %
     Test CRC A16ACAB9
     Copy CRC A16ACAB9
     Track not present in AccurateRip database
     Copy OK

Track  4

     Filename H:\Torrents.ru\Ugly Kid Joe\Albums\1996 - Motel California (Japan)\04. Ugly Kid Joe - Rage Against The Answering Machine.wav

     Peak level 98.8 %
     Track quality 100.0 %
     Test CRC 9D9B012E
     Copy CRC 9D9B012E
     Track not present in AccurateRip database
     Copy OK

Track  5

     Filename H:\Torrents.ru\Ugly Kid Joe\Albums\1996 - Motel California (Japan)\05. Ugly Kid Joe - Would You Like To Be There.wav

     Peak level 98.8 %
     Track quality 100.0 %
     Test CRC 3EFCC235
     Copy CRC 3EFCC235
     Track not present in AccurateRip database
     Copy OK

Track  6

     Filename H:\Torrents.ru\Ugly Kid Joe\Albums\1996 - Motel California (Japan)\06. Ugly Kid Joe - Little Red Man.wav

     Peak level 98.8 %
     Track quality 100.0 %
     Test CRC 272563E5
     Copy CRC 272563E5
     Track not present in AccurateRip database
     Copy OK

Track  7

     Filename H:\Torrents.ru\Ugly Kid Joe\Albums\1996 - Motel California (Japan)\07. Ugly Kid Joe - Bicycle Wheels.wav

     Peak level 98.8 %
     Track quality 100.0 %
     Test CRC 70BB4B0F
     Copy CRC 70BB4B0F
     Track not present in AccurateRip database
     Copy OK

Track  8

     Filename H:\Torrents.ru\Ugly Kid Joe\Albums\1996 - Motel California (Japan)\08. Ugly Kid Joe - Father.wav

     Pre-gap length  0:00:00.71

     Peak level 98.8 %
     Track quality 99.9 %
     Test CRC 872414A9
     Copy CRC 872414A9
     Track not present in AccurateRip database
     Copy OK

Track  9

     Filename H:\Torrents.ru\Ugly Kid Joe\Albums\1996 - Motel California (Japan)\09. Ugly Kid Joe - Undertow.wav

     Pre-gap length  0:00:00.47

     Peak level 98.8 %
     Track quality 99.9 %
     Test CRC CA45270F
     Copy CRC CA45270F
     Track not present in AccurateRip database
     Copy OK

Track 10

     Filename H:\Torrents.ru\Ugly Kid Joe\Albums\1996 - Motel California (Japan)\10. Ugly Kid Joe - Shine.wav

     Peak level 98.8 %
     Track quality 100.0 %
     Test CRC A53358B0
     Copy CRC A53358B0
     Track not present in AccurateRip database
     Copy OK

Track 11

     Filename H:\Torrents.ru\Ugly Kid Joe\Albums\1996 - Motel California (Japan)\11. Ugly Kid Joe - Strange.wav

     Pre-gap length  0:00:00.09

     Peak level 98.8 %
     Track quality 100.0 %
     Test CRC 4849FD23
     Copy CRC 4849FD23
     Track not present in AccurateRip database
     Copy OK

Track 12

     Filename H:\Torrents.ru\Ugly Kid Joe\Albums\1996 - Motel California (Japan)\12. Ugly Kid Joe - 12 Cents.wav

     Peak level 98.3 %
     Track quality 100.0 %
     Test CRC 17C63727
     Copy CRC 17C63727
     Track not present in AccurateRip database
     Copy OK

Track 13

     Filename H:\Torrents.ru\Ugly Kid Joe\Albums\1996 - Motel California (Japan)\13. Ugly Kid Joe - Sandwich (Vulgar Remix).wav

     Pre-gap length  0:00:29.36

     Peak level 94.4 %
     Track quality 100.0 %
     Test CRC E2B419F8
     Copy CRC E2B419F8
     Track not present in AccurateRip database
     Copy OK

Track 14

     Filename H:\Torrents.ru\Ugly Kid Joe\Albums\1996 - Motel California (Japan)\14. Ugly Kid Joe - Bicycle Wheels (Remix).wav

     Pre-gap length  0:00:00.37

     Peak level 94.4 %
     Track quality 100.0 %
     Test CRC FAF0FC92
     Copy CRC FAF0FC92
     Track not present in AccurateRip database
     Copy OK

None of the tracks are present in the AccurateRip database

No errors occurred

End of status report
Код:
-----------------------

DON'T MODIFY THIS FILE

-----------------------

PERFORMER: auCDtect Task Manager, ver. 1.5.1RC6 build 1.5.1.7
Copyright (c) 2008-2010 y-soft. All rights reserved
http://y-soft.org

ANALYZER: auCDtect: CD records authenticity detector, version 0.8.2
Copyright (c) 2004 Oleg Berngardt. All rights reserved.
Copyright (c) 2004 Alexander Djourik. All rights reserved.

FILE: 14. Ugly Kid Joe - Bicycle Wheels (Remix).flac
  Size: 30638158 Hash: 544981798D449AA0DB1AAEBF47D554B5 Accuracy: -m0
  Conclusion: CDDA 100%
  Signature: 5A85454B8B5D6715A1C23451C1C162342B5385AB
FILE: 13. Ugly Kid Joe - Sandwich (Vulgar Remix).flac
  Size: 21801883 Hash: 720216560442E5A18D63354AF9563550 Accuracy: -m0
  Conclusion: CDDA 100%
  Signature: 7BD11E072BCB3DB882BB79986E711F415FCCA118
FILE: 12. Ugly Kid Joe - 12 Cents.flac
  Size: 26379104 Hash: B668347D7FC0E1A555D03AEC22D8E8D4 Accuracy: -m0
  Conclusion: CDDA 100%
  Signature: 3C945B9D6DFA62994240E3F8F02FA36AD1BD003D
FILE: 11. Ugly Kid Joe - Strange.flac
  Size: 31298017 Hash: 9895FF68DF8CDC3FA1E63A8133713E0C Accuracy: -m0
  Conclusion: CDDA 99%
  Signature: 4E35440DD5438D7EF26F7535059F9CA280C3EA2E
FILE: 10. Ugly Kid Joe - Shine.flac
  Size: 20649253 Hash: CE414387F519EC565692D2D92AB8169C Accuracy: -m0
  Conclusion: CDDA 100%
  Signature: DF7DBA6E9C7BD97E171D8E8E6E42C4B657441036
FILE: 09. Ugly Kid Joe - Undertow.flac
  Size: 29729752 Hash: 3606C29BD3841773CDA189739CFB9DB2 Accuracy: -m0
  Conclusion: CDDA 100%
  Signature: 8C9756E99523D165AA284DBF169B49238BBEAA28
FILE: 08. Ugly Kid Joe - Father.flac
  Size: 26217836 Hash: A7441D502227602C91C705B678C31DB1 Accuracy: -m0
  Conclusion: CDDA 99%
  Signature: 937171E1C53ED0035CD4C7FA547852F1A57D688E
FILE: 07. Ugly Kid Joe - Bicycle Wheels.flac
  Size: 14523677 Hash: 661FFD7A8DADE1DA643EFC5DDB38A9A1 Accuracy: -m0
  Conclusion: CDDA 100%
  Signature: 95EBD8FFF48D7706076E5AF298F53B7FA65A0D8F
FILE: 06. Ugly Kid Joe - Little Red Man.flac
  Size: 29203061 Hash: 2D5F32C0C5E4AEC3B61F250F5F5A70F3 Accuracy: -m0
  Conclusion: CDDA 100%
  Signature: 327B18D400F11E8D35F5502AA18F0B1CE300FAE1
FILE: 05. Ugly Kid Joe - Would You Like To Be There.flac
  Size: 25779434 Hash: DBB47B8E41ED6ACE29C83C8482493D18 Accuracy: -m0
  Conclusion: CDDA 100%
  Signature: 043C5F21EEF92D0AE1C75D75118D809C60E16304
FILE: 04. Ugly Kid Joe - Rage Against The Answering Machine.flac
  Size: 10801456 Hash: 3C80B4FA936E3FC8D3992248B32F0D67 Accuracy: -m0
  Conclusion: CDDA 100%
  Signature: 466096F1FE1E948E68B2C4F6D3190A3333CDAD26
FILE: 03. Ugly Kid Joe - Sandwich.flac
  Size: 20142927 Hash: 7559999E063CF8B99D41355399A4D47D Accuracy: -m0
  Conclusion: CDDA 99%
  Signature: 1BEA5AB5F109C098BA3635ADAF4F1F4D38329CAB
FILE: 02. Ugly Kid Joe - Dialogue.flac
  Size: 17572372 Hash: E42CC8A812B8558FDB8552FC50DDBAF3 Accuracy: -m0
  Conclusion: CDDA 100%
  Signature: C43A4C62C375DAD9BD740E0CB845C549F6EC7BF8
FILE: 01. Ugly Kid Joe - It's A Lie.flac
  Size: 22320717 Hash: 767DB489222C2D57CA12376989351A7A Accuracy: -m0
  Conclusion: CDDA 100%
  Signature: 3F4C91AC437DCB1F695FBF157933C5259A37AF16
Продолжительность: 00:47:13
Compilations
Треклист:

01. Madman (3:40)
02. Neighbor (4:46)
03. Cat's in the cradle (4:04)
04. Everything about you (4:15)
05. Tomorrow's world (4:19)
06. God (2:54)
07. Busy bee (4:11)
08. C.U.S.T. (2:59)
09. Milkman's son (3:53)
10. N.I.B. (5:28)
11. Goddamn devil (4:50)
12. Slower than nowhere (5:35)
13. Funky fresh country club (5:19)
14. Panhandlin' prince (5:42)
15. Jesus rode a Harley (3:15)
Код:
Exact Audio Copy V0.99 prebeta 5 from 4. May 2009

EAC extraction logfile from 1. June 2011, 21:18

Ugly kid Joe / As ugly as it gets

Used drive  : _NEC    DVD_RW ND-3520A   Adapter: 0  ID: 2

Read mode               : Secure
Utilize accurate stream : Yes
Defeat audio cache      : Yes
Make use of C2 pointers : No

Read offset correction                      : 48
Overread into Lead-In and Lead-Out          : No
Fill up missing offset samples with silence : Yes
Delete leading and trailing silent blocks   : No
Null samples used in CRC calculations       : Yes
Used interface                              : Native Win32 interface for Win NT & 2000
Gap handling                                : Appended to previous track

Used output format              : User Defined Encoder
Selected bitrate                : 320 kBit/s
Quality                         : High
Add ID3 tag                     : No
Command line compressor         : D:\Program Files\FLAC_frontend\flac.exe
Additional command line options : -8 -V -T "ARTIST=%a" -T "TITLE=%t" -T "ALBUM=%g" -T "DATE=%y" -T "TRACKNUMBER=%n" -T "GENRE=%m" -T "COMMENT=EAC FLAC -8" %s

TOC of the extracted CD

     Track |   Start  |  Length  | Start sector | End sector
    ---------------------------------------------------------
        1  |  0:00.00 |  3:39.55 |         0    |    16479
        2  |  3:39.55 |  4:46.20 |     16480    |    37949
        3  |  8:26.00 |  4:04.30 |     37950    |    56279
        4  | 12:30.30 |  4:15.12 |     56280    |    75416
        5  | 16:45.42 |  4:18.68 |     75417    |    94834
        6  | 21:04.35 |  2:53.42 |     94835    |   107851
        7  | 23:58.02 |  4:11.28 |    107852    |   126704
        8  | 28:09.30 |  2:58.52 |    126705    |   140106
        9  | 31:08.07 |  3:53.30 |    140107    |   157611
       10  | 35:01.37 |  5:27.70 |    157612    |   182206
       11  | 40:29.32 |  4:50.03 |    182207    |   203959
       12  | 45:19.35 |  5:35.07 |    203960    |   229091
       13  | 50:54.42 |  5:18.48 |    229092    |   252989
       14  | 56:13.15 |  5:42.37 |    252990    |   278676
       15  | 61:55.52 |  3:14.48 |    278677    |   293274

Track  1

     Filename H:\Torrents.ru\Ugly Kid Joe\Compilations\1998 - As Ugly As It Gets - The Very Best Of Ugly Kid Joe\01. Ugly kid Joe - Madman.wav

     Pre-gap length  0:00:02.00

     Peak level 100.0 %
     Track quality 100.0 %
     Test CRC 64A336D4
     Copy CRC 64A336D4
     Accurately ripped (confidence 9)  [316CFF5D]
     Copy OK

Track  2

     Filename H:\Torrents.ru\Ugly Kid Joe\Compilations\1998 - As Ugly As It Gets - The Very Best Of Ugly Kid Joe\02. Ugly kid Joe - Neighbor.wav

     Pre-gap length  0:00:01.55

     Peak level 100.0 %
     Track quality 99.9 %
     Test CRC 823559B2
     Copy CRC 823559B2
     Accurately ripped (confidence 9)  [E150AFFB]
     Copy OK

Track  3

     Filename H:\Torrents.ru\Ugly Kid Joe\Compilations\1998 - As Ugly As It Gets - The Very Best Of Ugly Kid Joe\03. Ugly kid Joe - Cat's in the cradle.wav

     Pre-gap length  0:00:01.18

     Peak level 89.1 %
     Track quality 99.9 %
     Test CRC 040F2560
     Copy CRC 040F2560
     Accurately ripped (confidence 9)  [ACFF5AD0]
     Copy OK

Track  4

     Filename H:\Torrents.ru\Ugly Kid Joe\Compilations\1998 - As Ugly As It Gets - The Very Best Of Ugly Kid Joe\04. Ugly kid Joe - Everything about you.wav

     Pre-gap length  0:00:01.33

     Peak level 99.5 %
     Track quality 100.0 %
     Test CRC 18B757ED
     Copy CRC 18B757ED
     Accurately ripped (confidence 9)  [228BE8C6]
     Copy OK

Track  5

     Filename H:\Torrents.ru\Ugly Kid Joe\Compilations\1998 - As Ugly As It Gets - The Very Best Of Ugly Kid Joe\05. Ugly kid Joe - Tomorrow's world.wav

     Pre-gap length  0:00:01.62

     Peak level 80.2 %
     Track quality 100.0 %
     Test CRC EFB1A6CB
     Copy CRC EFB1A6CB
     Accurately ripped (confidence 8)  [ACE36D56]
     Copy OK

Track  6

     Filename H:\Torrents.ru\Ugly Kid Joe\Compilations\1998 - As Ugly As It Gets - The Very Best Of Ugly Kid Joe\06. Ugly kid Joe - God.wav

     Pre-gap length  0:00:01.33

     Peak level 75.7 %
     Track quality 100.0 %
     Test CRC 5B61B3D3
     Copy CRC 5B61B3D3
     Accurately ripped (confidence 9)  [52759A88]
     Copy OK

Track  7

     Filename H:\Torrents.ru\Ugly Kid Joe\Compilations\1998 - As Ugly As It Gets - The Very Best Of Ugly Kid Joe\07. Ugly kid Joe - Busy bee.wav

     Pre-gap length  0:00:02.17

     Peak level 100.0 %
     Track quality 99.9 %
     Test CRC 65AA5376
     Copy CRC 65AA5376
     Accurately ripped (confidence 9)  [B86F0A8A]
     Copy OK

Track  8

     Filename H:\Torrents.ru\Ugly Kid Joe\Compilations\1998 - As Ugly As It Gets - The Very Best Of Ugly Kid Joe\08. Ugly kid Joe - C.U.S.T..wav

     Pre-gap length  0:00:01.35

     Peak level 80.2 %
     Track quality 100.0 %
     Test CRC 8802E927
     Copy CRC 8802E927
     Accurately ripped (confidence 9)  [6B81B34A]
     Copy OK

Track  9

     Filename H:\Torrents.ru\Ugly Kid Joe\Compilations\1998 - As Ugly As It Gets - The Very Best Of Ugly Kid Joe\09. Ugly kid Joe - Milkman's son.wav

     Peak level 80.2 %
     Track quality 100.0 %
     Test CRC 3F367654
     Copy CRC 3F367654
     Accurately ripped (confidence 9)  [4D3018DB]
     Copy OK

Track 10

     Filename H:\Torrents.ru\Ugly Kid Joe\Compilations\1998 - As Ugly As It Gets - The Very Best Of Ugly Kid Joe\10. Ugly kid Joe - N.I.B..wav

     Pre-gap length  0:00:02.02

     Peak level 88.7 %
     Track quality 100.0 %
     Test CRC 8DC2E2E2
     Copy CRC 8DC2E2E2
     Accurately ripped (confidence 9)  [952404A5]
     Copy OK

Track 11

     Filename H:\Torrents.ru\Ugly Kid Joe\Compilations\1998 - As Ugly As It Gets - The Very Best Of Ugly Kid Joe\11. Ugly kid Joe - Goddamn devil.wav

     Pre-gap length  0:00:01.52

     Peak level 100.0 %
     Track quality 100.0 %
     Test CRC 3D2892AC
     Copy CRC 3D2892AC
     Accurately ripped (confidence 9)  [FD1BDDC1]
     Copy OK

Track 12

     Filename H:\Torrents.ru\Ugly Kid Joe\Compilations\1998 - As Ugly As It Gets - The Very Best Of Ugly Kid Joe\12. Ugly kid Joe - Slower than nowhere.wav

     Pre-gap length  0:00:01.19

     Peak level 83.8 %
     Track quality 100.0 %
     Test CRC 9EC99E43
     Copy CRC 9EC99E43
     Accurately ripped (confidence 9)  [2671A879]
     Copy OK

Track 13

     Filename H:\Torrents.ru\Ugly Kid Joe\Compilations\1998 - As Ugly As It Gets - The Very Best Of Ugly Kid Joe\13. Ugly kid Joe - Funky fresh country club.wav

     Peak level 100.0 %
     Track quality 100.0 %
     Test CRC D7133246
     Copy CRC D7133246
     Accurately ripped (confidence 9)  [0DB89E6D]
     Copy OK

Track 14

     Filename H:\Torrents.ru\Ugly Kid Joe\Compilations\1998 - As Ugly As It Gets - The Very Best Of Ugly Kid Joe\14. Ugly kid Joe - Panhandlin' prince.wav

     Peak level 100.0 %
     Track quality 100.0 %
     Test CRC B5C9CE3B
     Copy CRC B5C9CE3B
     Accurately ripped (confidence 9)  [76EC4AF8]
     Copy OK

Track 15

     Filename H:\Torrents.ru\Ugly Kid Joe\Compilations\1998 - As Ugly As It Gets - The Very Best Of Ugly Kid Joe\15. Ugly kid Joe - Jesus rode a Harley.wav

     Pre-gap length  0:00:01.52

     Peak level 80.2 %
     Track quality 100.0 %
     Test CRC DA7FC3F7
     Copy CRC DA7FC3F7
     Accurately ripped (confidence 9)  [C3DB86E6]
     Copy OK

All tracks accurately ripped

No errors occurred

End of status report
Код:
-----------------------

DON'T MODIFY THIS FILE

-----------------------

PERFORMER: auCDtect Task Manager, ver. 1.5.1RC6 build 1.5.1.7
Copyright (c) 2008-2010 y-soft. All rights reserved
http://y-soft.org

ANALYZER: auCDtect: CD records authenticity detector, version 0.8.2
Copyright (c) 2004 Oleg Berngardt. All rights reserved.
Copyright (c) 2004 Alexander Djourik. All rights reserved.

FILE: 15. Ugly kid Joe - Jesus rode a Harley.flac
  Size: 24338865 Hash: 9B3C4B53AB25A3A4B28A573C4ACA8ED3 Accuracy: -m0
  Conclusion: CDDA 100%
  Signature: 74260CC227A37B485AF2D1291EA579051E5731B2
FILE: 14. Ugly kid Joe - Panhandlin' prince.flac
  Size: 42783970 Hash: A81F6B579CAC79478C6E06F93AF0B4C0 Accuracy: -m0
  Conclusion: CDDA 100%
  Signature: E1290149ABD8D0096D28AFFD0BAD2F1C6940BC1C
FILE: 13. Ugly kid Joe - Funky fresh country club.flac
  Size: 39393215 Hash: 6BF1F69AFFB1EB60710FFC691FDEC007 Accuracy: -m0
  Conclusion: CDDA 100%
  Signature: D27B47EC7656289404554FC5CEA917F3D59DCEC9
FILE: 12. Ugly kid Joe - Slower than nowhere.flac
  Size: 43145344 Hash: 2AF78CC0A7A2628F34A084B914FB4A31 Accuracy: -m0
  Conclusion: CDDA 100%
  Signature: 5B73F89FD23807E899980C5225B808631311DF55
FILE: 11. Ugly kid Joe - Goddamn devil.flac
  Size: 33959540 Hash: C9AB9127E0C210008F6B445C4B551470 Accuracy: -m0
  Conclusion: CDDA 100%
  Signature: A1B73EEB339D08432FCD08A7D55F80DE663C877A
FILE: 10. Ugly kid Joe - N.I.B..flac
  Size: 41015817 Hash: 07437885813EA97CB0AAB39BBB0A3355 Accuracy: -m0
  Conclusion: CDDA 100%
  Signature: D4FCC1E3BFA32945917761B14253622C4B1AB20A
FILE: 09. Ugly kid Joe - Milkman's son.flac
  Size: 29224018 Hash: 16E6C3D9E502BAA160BA0C34AD39354B Accuracy: -m0
  Conclusion: CDDA 100%
  Signature: 7CA549A1F91277195407B0B681A9F82D0057C81C
FILE: 08. Ugly kid Joe - C.U.S.T..flac
  Size: 23760580 Hash: FC32CDFB2A7D09EDDDA946A150552054 Accuracy: -m0
  Conclusion: CDDA 100%
  Signature: CD878BF2BCED3651B08C1D192CE7B51A7EB32FD7
FILE: 07. Ugly kid Joe - Busy bee.flac
  Size: 29422095 Hash: 46698B423314323A6614499BE49E1AD0 Accuracy: -m0
  Conclusion: CDDA 100%
  Signature: 5A70607F05F12B43B8B1DA76D7C2E40D4F992F4C
FILE: 06. Ugly kid Joe - God.flac
  Size: 22259056 Hash: F551886C8993A8DAA7F1F52B2478A5A2 Accuracy: -m0
  Conclusion: CDDA 100%
  Signature: A2E712583C98173B9AE425AE945AE9F19239D2D1
FILE: 05. Ugly kid Joe - Tomorrow's world.flac
  Size: 31905744 Hash: BDB14B1A38134752FB0CE6B5AD001E69 Accuracy: -m0
  Conclusion: CDDA 100%
  Signature: EF3179CD901DB7851AEBF777F3B51DD4B8E4F7FE
FILE: 04. Ugly kid Joe - Everything about you.flac
  Size: 30106506 Hash: 2F8460EC7CA217DED0CC3DE876B75639 Accuracy: -m0
  Conclusion: CDDA 100%
  Signature: AA179AE43E9663AABCF0379C70B9AA5415A42A28
FILE: 03. Ugly kid Joe - Cat's in the cradle.flac
  Size: 28133917 Hash: 7D6A05C52EFAF5BBE093C99DD2D6CD56 Accuracy: -m0
  Conclusion: CDDA 100%
  Signature: 7A3719B07437164A4F5D485640FB95B552A9BB4D
FILE: 02. Ugly kid Joe - Neighbor.flac
  Size: 34796112 Hash: 6F8A290540DE3275100B85EE600BDA7D Accuracy: -m0
  Conclusion: CDDA 100%
  Signature: CBCF3915B36036E3DE40754434439EF04154D748
FILE: 01. Ugly kid Joe - Madman.flac
  Size: 27023452 Hash: 5D967482E6BACD4861B5AFD868EBF10B Accuracy: -m0
  Conclusion: CDDA 100%
  Signature: BE781AFEA7B2678ADE742CA17663606FA65D3BE4
Продолжительность: 01:05:10
Треклист:

01. Everthing About You (4:16)
02. Cats In The Cradle (4:03)
03. Neighbour (4:46)
04. So Damn Cool (4:26)
05. Busy Bee (4:10)
06. Milkman's Son (3:52)
07. Candle Song (2:55)
08. Cloudy Skies (4:26)
09. VIP (3:46)
10. Compa (2:05)
11. Goddam Devil (4:49)
12. Madman (3:38)
13. Panhandlin' Prince (5:40)
14. Funky Fresh Country Club (5:18)
15. Same Side (4:31)
16. Don't Go (4:31)
17. C.U.S.T. (3:00)
18. Slower Than Nowhere (5:34)
Код:
Exact Audio Copy V0.99 prebeta 5 from 4. May 2009

EAC extraction logfile from 2. June 2011, 21:52

Ugly Kid Joe / The Collection

Used drive  : _NEC    DVD_RW ND-3520A   Adapter: 0  ID: 2

Read mode               : Secure
Utilize accurate stream : Yes
Defeat audio cache      : Yes
Make use of C2 pointers : No

Read offset correction                      : 48
Overread into Lead-In and Lead-Out          : No
Fill up missing offset samples with silence : Yes
Delete leading and trailing silent blocks   : No
Null samples used in CRC calculations       : Yes
Used interface                              : Native Win32 interface for Win NT & 2000
Gap handling                                : Appended to previous track

Used output format              : User Defined Encoder
Selected bitrate                : 320 kBit/s
Quality                         : High
Add ID3 tag                     : No
Command line compressor         : D:\Program Files\FLAC_frontend\flac.exe
Additional command line options : -8 -V -T "ARTIST=%a" -T "TITLE=%t" -T "ALBUM=%g" -T "DATE=%y" -T "TRACKNUMBER=%n" -T "GENRE=%m" -T "COMMENT=EAC FLAC -8" %s

TOC of the extracted CD

     Track |   Start  |  Length  | Start sector | End sector
    ---------------------------------------------------------
        1  |  0:00.00 |  4:16.26 |         0    |    19225
        2  |  4:16.26 |  4:03.32 |     19226    |    37482
        3  |  8:19.58 |  4:46.02 |     37483    |    58934
        4  | 13:05.60 |  4:25.74 |     58935    |    78883
        5  | 17:31.59 |  4:09.63 |     78884    |    97621
        6  | 21:41.47 |  3:51.73 |     97622    |   115019
        7  | 25:33.45 |  2:54.60 |    115020    |   128129
        8  | 28:28.30 |  4:25.68 |    128130    |   148072
        9  | 32:54.23 |  3:46.17 |    148073    |   165039
       10  | 36:40.40 |  2:04.62 |    165040    |   174401
       11  | 38:45.27 |  4:48.73 |    174402    |   196074
       12  | 43:34.25 |  3:37.70 |    196075    |   212419
       13  | 47:12.20 |  5:40.34 |    212420    |   237953
       14  | 52:52.54 |  5:18.19 |    237954    |   261822
       15  | 58:10.73 |  4:30.74 |    261823    |   282146
       16  | 62:41.72 |  4:30.62 |    282147    |   302458
       17  | 67:12.59 |  2:59.41 |    302459    |   315924
       18  | 70:12.25 |  5:33.49 |    315925    |   340948

Track  1

     Filename H:\Torrents.ru\Ugly Kid Joe\Compilations\2002 - The Collection\01. Ugly Kid Joe - Everthing About You.wav

     Pre-gap length  0:00:02.00

     Peak level 99.5 %
     Track quality 99.9 %
     Test CRC 5E14DC36
     Copy CRC 5E14DC36
     Accurately ripped (confidence 11)  [C2F86610]
     Copy OK

Track  2

     Filename H:\Torrents.ru\Ugly Kid Joe\Compilations\2002 - The Collection\02. Ugly Kid Joe - Cats In The Cradle.wav

     Pre-gap length  0:00:01.61

     Peak level 89.1 %
     Track quality 99.9 %
     Test CRC AF9181FE
     Copy CRC AF9181FE
     Accurately ripped (confidence 11)  [5550557F]
     Copy OK

Track  3

     Filename H:\Torrents.ru\Ugly Kid Joe\Compilations\2002 - The Collection\03. Ugly Kid Joe - Neighbour.wav

     Pre-gap length  0:00:01.53

     Peak level 100.0 %
     Track quality 100.0 %
     Test CRC 26290C5F
     Copy CRC 26290C5F
     Accurately ripped (confidence 11)  [7C0920A6]
     Copy OK

Track  4

     Filename H:\Torrents.ru\Ugly Kid Joe\Compilations\2002 - The Collection\04. Ugly Kid Joe - So Damn Cool.wav

     Pre-gap length  0:00:01.47

     Peak level 100.0 %
     Track quality 99.9 %
     Test CRC 70259624
     Copy CRC 70259624
     Accurately ripped (confidence 11)  [D84C4CAD]
     Copy OK

Track  5

     Filename H:\Torrents.ru\Ugly Kid Joe\Compilations\2002 - The Collection\05. Ugly Kid Joe - Busy Bee.wav

     Peak level 100.0 %
     Track quality 100.0 %
     Test CRC 0C721701
     Copy CRC 0C721701
     Accurately ripped (confidence 11)  [9D4C0A7F]
     Copy OK

Track  6

     Filename H:\Torrents.ru\Ugly Kid Joe\Compilations\2002 - The Collection\06. Ugly Kid Joe - Milkman's Son.wav

     Peak level 80.2 %
     Track quality 100.0 %
     Test CRC 0E87102A
     Copy CRC 0E87102A
     Accurately ripped (confidence 11)  [0F85B6BC]
     Copy OK

Track  7

     Filename H:\Torrents.ru\Ugly Kid Joe\Compilations\2002 - The Collection\07. Ugly Kid Joe - Candle Song.wav

     Peak level 92.0 %
     Track quality 100.0 %
     Test CRC 904AF79D
     Copy CRC 904AF79D
     Accurately ripped (confidence 11)  [2BE2E00E]
     Copy OK

Track  8

     Filename H:\Torrents.ru\Ugly Kid Joe\Compilations\2002 - The Collection\08. Ugly Kid Joe - Cloudy Skies.wav

     Peak level 95.8 %
     Track quality 100.0 %
     Test CRC 068CABD8
     Copy CRC 068CABD8
     Accurately ripped (confidence 10)  [146F9D3E]
     Copy OK

Track  9

     Filename H:\Torrents.ru\Ugly Kid Joe\Compilations\2002 - The Collection\09. Ugly Kid Joe - VIP.wav

     Peak level 95.8 %
     Track quality 100.0 %
     Test CRC 1AB93091
     Copy CRC 1AB93091
     Accurately ripped (confidence 9)  [98B5295D]
     Copy OK

Track 10

     Filename H:\Torrents.ru\Ugly Kid Joe\Compilations\2002 - The Collection\10. Ugly Kid Joe - Compa.wav

     Peak level 95.8 %
     Track quality 100.0 %
     Test CRC EECBCF38
     Copy CRC EECBCF38
     Accurately ripped (confidence 11)  [E2F474AA]
     Copy OK

Track 11

     Filename H:\Torrents.ru\Ugly Kid Joe\Compilations\2002 - The Collection\11. Ugly Kid Joe - Goddam Devil.wav

     Peak level 100.0 %
     Track quality 100.0 %
     Test CRC 2B302B02
     Copy CRC 2B302B02
     Accurately ripped (confidence 10)  [97876036]
     Copy OK

Track 12

     Filename H:\Torrents.ru\Ugly Kid Joe\Compilations\2002 - The Collection\12. Ugly Kid Joe - Madman.wav

     Peak level 100.0 %
     Track quality 100.0 %
     Test CRC 83114159
     Copy CRC 83114159
     Accurately ripped (confidence 10)  [A61D6C58]
     Copy OK

Track 13

     Filename H:\Torrents.ru\Ugly Kid Joe\Compilations\2002 - The Collection\13. Ugly Kid Joe - Panhandlin' Prince.wav

     Peak level 100.0 %
     Track quality 100.0 %
     Test CRC C96970BB
     Copy CRC C96970BB
     Accurately ripped (confidence 10)  [3EFCEEF0]
     Copy OK

Track 14

     Filename H:\Torrents.ru\Ugly Kid Joe\Compilations\2002 - The Collection\14. Ugly Kid Joe - Funky Fresh Country Club.wav

     Peak level 100.0 %
     Track quality 100.0 %
     Test CRC 89FF5787
     Copy CRC 89FF5787
     Accurately ripped (confidence 10)  [B56EF7AB]
     Copy OK

Track 15

     Filename H:\Torrents.ru\Ugly Kid Joe\Compilations\2002 - The Collection\15. Ugly Kid Joe - Same Side.wav

     Peak level 100.0 %
     Track quality 99.9 %
     Test CRC ACA75D00
     Copy CRC ACA75D00
     Accurately ripped (confidence 10)  [09A3E202]
     Copy OK

Track 16

     Filename H:\Torrents.ru\Ugly Kid Joe\Compilations\2002 - The Collection\16. Ugly Kid Joe - Don't Go.wav

     Peak level 100.0 %
     Track quality 100.0 %
     Test CRC F2299557
     Copy CRC F2299557
     Accurately ripped (confidence 8)  [BECB3F04]
     Copy OK

Track 17

     Filename H:\Torrents.ru\Ugly Kid Joe\Compilations\2002 - The Collection\17. Ugly Kid Joe - C.U.S.T..wav

     Peak level 80.2 %
     Track quality 100.0 %
     Test CRC 84169FA4
     Copy CRC 84169FA4
     Accurately ripped (confidence 9)  [0DB35B6C]
     Copy OK

Track 18

     Filename H:\Torrents.ru\Ugly Kid Joe\Compilations\2002 - The Collection\18. Ugly Kid Joe - Slower Than Nowhere.wav

     Peak level 83.8 %
     Track quality 100.0 %
     Test CRC A831F504
     Copy CRC A831F504
     Accurately ripped (confidence 10)  [4F0B04B2]
     Copy OK

All tracks accurately ripped

No errors occurred

End of status report
Код:
-----------------------

DON'T MODIFY THIS FILE

-----------------------

PERFORMER: auCDtect Task Manager, ver. 1.5.1RC6 build 1.5.1.7
Copyright (c) 2008-2010 y-soft. All rights reserved
http://y-soft.org

ANALYZER: auCDtect: CD records authenticity detector, version 0.8.2
Copyright (c) 2004 Oleg Berngardt. All rights reserved.
Copyright (c) 2004 Alexander Djourik. All rights reserved.

FILE: 18. Ugly Kid Joe - Slower Than Nowhere.flac
  Size: 43123978 Hash: D22964C17C3C5892312FB7DE194F58CB Accuracy: -m0
  Conclusion: CDDA 100%
  Signature: 6DA6F0044FD3D08A17D61F9E79146B9822751CA1
FILE: 17. Ugly Kid Joe - C.U.S.T..flac
  Size: 23865995 Hash: 344896493C887A6E960F1C792C4A6C12 Accuracy: -m0
  Conclusion: CDDA 100%
  Signature: 88A24FAEF22D7644E06FE48F5844A395884B7E5C
FILE: 16. Ugly Kid Joe - Don't Go.flac
  Size: 34006214 Hash: 8C12E7BA97CC41AB7DD7FBBBB6686924 Accuracy: -m0
  Conclusion: CDDA 100%
  Signature: 7F20C6EAF810D554BE5AA40EA2C20FC91B98847E
FILE: 15. Ugly Kid Joe - Same Side.flac
  Size: 32656686 Hash: ABF00C9E938C51310BA2C47CA2DB3C3D Accuracy: -m0
  Conclusion: CDDA 100%
  Signature: 82EE265A2562A989AF53D151BB8EDF599D1179F8
FILE: 14. Ugly Kid Joe - Funky Fresh Country Club.flac
  Size: 39753740 Hash: 0E12FEB814885562EE474BE218AD83BE Accuracy: -m0
  Conclusion: CDDA 100%
  Signature: 9746E541AA2957B296925630364CEAD0E142F4D4
FILE: 13. Ugly Kid Joe - Panhandlin' Prince.flac
  Size: 43068794 Hash: 40B010E5A80E1FFADD20B539D34339E5 Accuracy: -m0
  Conclusion: CDDA 100%
  Signature: 129FF10596DD385FFA75A95F19D536890C4FAA66
FILE: 12. Ugly Kid Joe - Madman.flac
  Size: 27287608 Hash: 742165F7B6093637E4B83B5EF886199C Accuracy: -m0
  Conclusion: CDDA 100%
  Signature: C493AEB0F319C0067BFA6C4506CE19064E41F55A
FILE: 11. Ugly Kid Joe - Goddam Devil.flac
  Size: 34182509 Hash: 36EAF4D4C341B8EA115E698199F94C93 Accuracy: -m0
  Conclusion: CDDA 100%
  Signature: C706613BB1DF3ABA05607CCF6547B496927721EE
FILE: 10. Ugly Kid Joe - Compa.flac
  Size: 14627229 Hash: AC4BD530718F9217B4E662F7483EE3E2 Accuracy: -m0
  Conclusion: CDDA 100%
  Signature: BCA02DFBAEBBFABDE1C9095DC4865240686FAC33
FILE: 09. Ugly Kid Joe - VIP.flac
  Size: 29012856 Hash: 12F1938330B52B634BA95ED0C3001C9A Accuracy: -m0
  Conclusion: CDDA 100%
  Signature: 9139BB8EC5F09F97B9BF90DEE6FF5D1492766626
FILE: 08. Ugly Kid Joe - Cloudy Skies.flac
  Size: 31135077 Hash: A15C789F388B7457F3EF651B2A92E20D Accuracy: -m0
  Conclusion: CDDA 100%
  Signature: F46E146B7692E746C707779CCA075F4DFFC8C038
FILE: 07. Ugly Kid Joe - Candle Song.flac
  Size: 17058829 Hash: 334F2152C2DCA52F87C960691799AF9E Accuracy: -m0
  Conclusion: CDDA 100%
  Signature: D11756E01B0C6DD75F4C39C7EBA261EC85C0062B
FILE: 06. Ugly Kid Joe - Milkman's Son.flac
  Size: 29322137 Hash: 36604557F89BEF91B0A4F04A6F0F9B03 Accuracy: -m0
  Conclusion: CDDA 99%
  Signature: 252AA754297527CF691C6892C90AC11382124096
FILE: 05. Ugly Kid Joe - Busy Bee.flac
  Size: 29690793 Hash: 9AAE361018D17293B7420E2B6C1EEE33 Accuracy: -m0
  Conclusion: CDDA 100%
  Signature: 1102D4045BA08995D4E18A00E4D50BCDA9BA2093
FILE: 04. Ugly Kid Joe - So Damn Cool.flac
  Size: 31532803 Hash: 9B610D1381BC4E66F58B7F9228789F4D Accuracy: -m0
  Conclusion: CDDA 99%
  Signature: 97683593AB985FCEC5CB61C00BB183C8CB98F8EB
FILE: 03. Ugly Kid Joe - Neighbour.flac
  Size: 35110098 Hash: 941AE6EA3556D28AE6A6ED31B6866037 Accuracy: -m0
  Conclusion: CDDA 100%
  Signature: 61C80021C78EAFB9C4C789B20F0347370914A39B
FILE: 02. Ugly Kid Joe - Cats In The Cradle.flac
  Size: 28339632 Hash: 93E4323965B7622BD5A3B31CDBD395B5 Accuracy: -m0
  Conclusion: CDDA 100%
  Signature: 21E0D8B1778C1C96254E82FF9B4464D1354AEA14
FILE: 01. Ugly Kid Joe - Everthing About You.flac
  Size: 30404787 Hash: E5418F628FD838AE85DD25A506957107 Accuracy: -m0
  Conclusion: CDDA 100%
  Signature: 1434E4C69DB588155AFB22A43BBB31785B0A7A16
Продолжительность: 01:15:46
Singles, EP
Треклист:

01. Madman (3:38)
02. Whiplash Liquor (3:41)
03. Too Bad (5:54)
04. Everything About You (4:14)
05. Sweet Leaf/Funky Fresh Country Club (7:32)
06. Heavy Metal (0:25)
Код:
Exact Audio Copy V0.99 prebeta 5 from 4. May 2009

EAC extraction logfile from 2. May 2011, 21:45

Ugly Kid Joe / As Ugly As They Wanna Be

Used drive  : _NEC    DVD_RW ND-3520A   Adapter: 0  ID: 2

Read mode               : Secure
Utilize accurate stream : Yes
Defeat audio cache      : Yes
Make use of C2 pointers : No

Read offset correction                      : 48
Overread into Lead-In and Lead-Out          : No
Fill up missing offset samples with silence : Yes
Delete leading and trailing silent blocks   : No
Null samples used in CRC calculations       : Yes
Used interface                              : Native Win32 interface for Win NT & 2000
Gap handling                                : Appended to previous track

Used output format              : User Defined Encoder
Selected bitrate                : 320 kBit/s
Quality                         : High
Add ID3 tag                     : No
Command line compressor         : D:\Program Files\FLAC_frontend\flac.exe
Additional command line options : -8 -V -T "ARTIST=%a" -T "TITLE=%t" -T "ALBUM=%g" -T "DATE=%y" -T "TRACKNUMBER=%n" -T "GENRE=%m" -T "COMMENT=EAC FLAC -8" %s

TOC of the extracted CD

     Track |   Start  |  Length  | Start sector | End sector
    ---------------------------------------------------------
        1  |  0:00.32 |  3:37.53 |        32    |    16359
        2  |  3:38.10 |  3:40.55 |     16360    |    32914
        3  |  7:18.65 |  5:54.32 |     32915    |    59496
        4  | 13:13.22 |  4:14.35 |     59497    |    78581
        5  | 17:27.57 |  7:32.28 |     78582    |   112509
        6  | 25:00.10 |  0:25.30 |    112510    |   114414

Track  1

     Filename H:\Torrents.ru\Ugly Kid Joe\Singles & EPs\1991 - As Ugly As They Wanna Be EP\01. Ugly Kid Joe - Madman.wav

     Pre-gap length  0:00:02.32

     Peak level 94.0 %
     Track quality 100.0 %
     Test CRC 1C9CAC22
     Copy CRC 1C9CAC22
     Accurately ripped (confidence 53)  [15E3A218]
     Copy OK

Track  2

     Filename H:\Torrents.ru\Ugly Kid Joe\Singles & EPs\1991 - As Ugly As They Wanna Be EP\02. Ugly Kid Joe - Whiplash Liquor.wav

     Pre-gap length  0:00:00.23

     Peak level 94.0 %
     Track quality 100.0 %
     Test CRC F93CFEA0
     Copy CRC F93CFEA0
     Accurately ripped (confidence 55)  [F02B1011]
     Copy OK

Track  3

     Filename H:\Torrents.ru\Ugly Kid Joe\Singles & EPs\1991 - As Ugly As They Wanna Be EP\03. Ugly Kid Joe - Too Bad.wav

     Pre-gap length  0:00:00.25

     Peak level 94.0 %
     Track quality 100.0 %
     Test CRC 92CB52F3
     Copy CRC 92CB52F3
     Accurately ripped (confidence 53)  [75AA7838]
     Copy OK

Track  4

     Filename H:\Torrents.ru\Ugly Kid Joe\Singles & EPs\1991 - As Ugly As They Wanna Be EP\04. Ugly Kid Joe - Everything About You.wav

     Pre-gap length  0:00:00.32

     Peak level 94.0 %
     Track quality 100.0 %
     Test CRC 8FDD5E89
     Copy CRC 8FDD5E89
     Accurately ripped (confidence 56)  [29882973]
     Copy OK

Track  5

     Filename H:\Torrents.ru\Ugly Kid Joe\Singles & EPs\1991 - As Ugly As They Wanna Be EP\05. Ugly Kid Joe - Sweet Leaf,Funky Fresh Country Club.wav

     Pre-gap length  0:00:00.30

     Peak level 94.0 %
     Track quality 100.0 %
     Test CRC CB23D0BB
     Copy CRC CB23D0BB
     Accurately ripped (confidence 55)  [F2446E77]
     Copy OK

Track  6

     Filename H:\Torrents.ru\Ugly Kid Joe\Singles & EPs\1991 - As Ugly As They Wanna Be EP\06. Ugly Kid Joe - Heavy Metal.wav

     Pre-gap length  0:00:00.43

     Peak level 94.0 %
     Track quality 100.0 %
     Test CRC 2ED9EA61
     Copy CRC 2ED9EA61
     Accurately ripped (confidence 53)  [6FE4A1DF]
     Copy OK

All tracks accurately ripped

No errors occurred

End of status report
Код:
-----------------------

DON'T MODIFY THIS FILE

-----------------------

PERFORMER: auCDtect Task Manager, ver. 1.5.1RC6 build 1.5.1.7
Copyright (c) 2008-2010 y-soft. All rights reserved
http://y-soft.org

ANALYZER: auCDtect: CD records authenticity detector, version 0.8.2
Copyright (c) 2004 Oleg Berngardt. All rights reserved.
Copyright (c) 2004 Alexander Djourik. All rights reserved.

FILE: 06. Ugly Kid Joe - Heavy Metal.flac
  Size: 2860331 Hash: B3C736FE91E083ACF1C6AFB27AA571BB Accuracy: -m0
  Conclusion: CDDA 100%
  Signature: 4E9E335FB4C8537DE16F834DA5A009E853263884
FILE: 05. Ugly Kid Joe - Sweet Leaf,Funky Fresh Country Club.flac
  Size: 56438272 Hash: 4172C3312CD4645E1850392380BAC884 Accuracy: -m0
  Conclusion: CDDA 100%
  Signature: F308663FCE1B14E8047FC9DA6836ABAFACBC9626
FILE: 04. Ugly Kid Joe - Everything About You.flac
  Size: 29935777 Hash: DEA8CDAD2DF99BD5116CBC99874D9779 Accuracy: -m0
  Conclusion: CDDA 100%
  Signature: 192863366ADA17C24346A7DAB14B9D73A06893D9
FILE: 03. Ugly Kid Joe - Too Bad.flac
  Size: 43028801 Hash: E130F587B0C13C09089803BBE3FA0C0C Accuracy: -m0
  Conclusion: CDDA 100%
  Signature: 0CB6E3CE94577277EE63635C482E103EC4876A5D
FILE: 02. Ugly Kid Joe - Whiplash Liquor.flac
  Size: 26695805 Hash: 773B3C36874AD76865176ABF4BF765C2 Accuracy: -m0
  Conclusion: CDDA 100%
  Signature: 5B3E232E74F10D38B6D7934C55160CDA05F60E54
FILE: 01. Ugly Kid Joe - Madman.flac
  Size: 26705950 Hash: 4EAD1BCBE440B6069DD976982696AF50 Accuracy: -m0
  Conclusion: CDDA 100%
  Signature: C0625FC71AE12A13EB10CDA3BC9320015B65FCCB
Продолжительность: 00:25:25
Треклист:

01. Everything About You (Clean edit) (4:09)
02. Whiplash Liquor (3:43)
03. Sin City (Live) (5:08)
04. Everything About You (Dirty Version) (4:16)
Код:
Exact Audio Copy V0.99 prebeta 5 from 4. May 2009

EAC extraction logfile from 15. May 2011, 12:13

Ugly Kid Joe / Everything About You (Single)

Used drive  : _NEC    DVD_RW ND-3520A   Adapter: 0  ID: 2

Read mode               : Secure
Utilize accurate stream : Yes
Defeat audio cache      : Yes
Make use of C2 pointers : No

Read offset correction                      : 48
Overread into Lead-In and Lead-Out          : No
Fill up missing offset samples with silence : Yes
Delete leading and trailing silent blocks   : No
Null samples used in CRC calculations       : Yes
Used interface                              : Native Win32 interface for Win NT & 2000
Gap handling                                : Appended to previous track

Used output format              : User Defined Encoder
Selected bitrate                : 320 kBit/s
Quality                         : High
Add ID3 tag                     : No
Command line compressor         : D:\Program Files\FLAC_frontend\flac.exe
Additional command line options : -8 -V -T "ARTIST=%a" -T "TITLE=%t" -T "ALBUM=%g" -T "DATE=%y" -T "TRACKNUMBER=%n" -T "GENRE=%m" -T "COMMENT=EAC FLAC -8" %s

TOC of the extracted CD

     Track |   Start  |  Length  | Start sector | End sector
    ---------------------------------------------------------
        1  |  0:00.33 |  4:09.20 |        33    |    18727
        2  |  4:09.53 |  3:43.15 |     18728    |    35467
        3  |  7:52.68 |  5:07.45 |     35468    |    58537
        4  | 13:00.38 |  4:16.17 |     58538    |    77754

Track  1

     Filename H:\Torrents.ru\Ugly Kid Joe\Singles & EPs\1992 - Everything About You\01. Ugly Kid Joe - Everything About You (Clean edit).wav

     Pre-gap length  0:00:02.33

     Peak level 96.5 %
     Track quality 100.0 %
     Test CRC 4D94231F
     Copy CRC 4D94231F
     Accurately ripped (confidence 5)  [FF2A28D5]
     Copy OK

Track  2

     Filename H:\Torrents.ru\Ugly Kid Joe\Singles & EPs\1992 - Everything About You\02. Ugly Kid Joe - Whiplash Liquor.wav

     Pre-gap length  0:00:02.10

     Peak level 93.7 %
     Track quality 99.8 %
     Test CRC 77354B8A
     Copy CRC 77354B8A
     Accurately ripped (confidence 5)  [EA58975E]
     Copy OK

Track  3

     Filename H:\Torrents.ru\Ugly Kid Joe\Singles & EPs\1992 - Everything About You\03. Ugly Kid Joe - Sin City (Live).wav

     Pre-gap length  0:00:01.70

     Peak level 88.9 %
     Track quality 100.0 %
     Test CRC E3CC5261
     Copy CRC E3CC5261
     Accurately ripped (confidence 5)  [9F3455DD]
     Copy OK

Track  4

     Filename H:\Torrents.ru\Ugly Kid Joe\Singles & EPs\1992 - Everything About You\04. Ugly Kid Joe - Everything About You (Dirty Version).wav

     Pre-gap length  0:00:01.45

     Peak level 93.2 %
     Track quality 100.0 %
     Test CRC C0B0A7CB
     Copy CRC C0B0A7CB
     Accurately ripped (confidence 6)  [B1429F05]
     Copy OK

All tracks accurately ripped

No errors occurred

End of status report
Код:
-----------------------

DON'T MODIFY THIS FILE

-----------------------

PERFORMER: auCDtect Task Manager, ver. 1.5.1RC6 build 1.5.1.7
Copyright (c) 2008-2010 y-soft. All rights reserved
http://y-soft.org

ANALYZER: auCDtect: CD records authenticity detector, version 0.8.2
Copyright (c) 2004 Oleg Berngardt. All rights reserved.
Copyright (c) 2004 Alexander Djourik. All rights reserved.

FILE: 04. Ugly Kid Joe - Everything About You (Dirty Version).flac
  Size: 29155057 Hash: 4F2130FA4A8B4A0E0ED9AD660C4DD782 Accuracy: -m0
  Conclusion: CDDA 99%
  Signature: 98984FA29F897425D1CDA92A0FD5C51E3C2CDDB5
FILE: 03. Ugly Kid Joe - Sin City (Live).flac
  Size: 35820733 Hash: 343E8C047FE7255024E48A064A55B1EB Accuracy: -m0
  Conclusion: CDDA 100%
  Signature: 665B8D8A7A2BC3180CD45268B5412E697387D10E
FILE: 02. Ugly Kid Joe - Whiplash Liquor.flac
  Size: 26203918 Hash: B1310E1F76FC26EF622B31144455C123 Accuracy: -m0
  Conclusion: CDDA 100%
  Signature: 313FAB556A9A5A2110581DF221C02CAF1AB2AAAB
FILE: 01. Ugly Kid Joe - Everything About You (Clean edit).flac
  Size: 28143247 Hash: 0CB5A35C64FA48BE6BD68D58E70D3B38 Accuracy: -m0
  Conclusion: CDDA 100%
  Signature: A4F878A2045C1E18A4886D20AFC4ADF5B0B42D4F
Продолжительность: 00:17:16
Треклист:

01. Devil's Paradise (3:37)
02. You Make Me Sick (3:42)
03. No One Survives (4:02)
04. I'm Alright (3:22)
05. Love Ain't True! (3:28)
06. Another Beer (3:33)
Код:
Exact Audio Copy V1.0 beta 3 from 29. August 2011

EAC extraction logfile from 14. August 2012, 22:18

Ugly Kid Joe / Stairway To Hell

Used drive  : ATAPI   iHBS112   2   Adapter: 1  ID: 1

Read mode               : Secure
Utilize accurate stream : Yes
Defeat audio cache      : Yes
Make use of C2 pointers : No

Read offset correction                      : 6
Overread into Lead-In and Lead-Out          : No
Fill up missing offset samples with silence : Yes
Delete leading and trailing silent blocks   : No
Null samples used in CRC calculations       : Yes
Used interface                              : Native Win32 interface for Win NT & 2000
Gap handling                                : Appended to previous track

Used output format              : User Defined Encoder
Selected bitrate                : 768 kBit/s
Quality                         : High
Add ID3 tag                     : No
Command line compressor         : C:\Program Files\Exact Audio Copy\FLAC\FLAC.EXE
Additional command line options : -6 -V -T "ARTIST=%artist%" -T "TITLE=%title%" -T "ALBUM=%albumtitle%" -T "DATE=%year%" -T "TRACKNUMBER=%tracknr%" -T "GENRE=%genre%" -T "COMMENT=%comment%" -T "BAND=%albuminterpret%" -T "ALBUMARTIST=%albuminterpret%" -T "COMPOSER=%composer%" %haslyrics%--tag-from-file=LYRICS="%lyricsfile%"%haslyrics% -T "DISCNUMBER=%cdnumber%" -T "TOTALDISCS=%totalcds%" -T "TOTALTRACKS=%numtracks%" %hascover%--picture="%coverfile%"%hascover% %source% -o %dest%

TOC of the extracted CD

     Track |   Start  |  Length  | Start sector | End sector
    ---------------------------------------------------------
        1  |  0:00.00 |  3:37.28 |         0    |    16302
        2  |  3:37.28 |  3:42.30 |     16303    |    32982
        3  |  7:19.58 |  4:02.30 |     32983    |    51162
        4  | 11:22.13 |  3:21.50 |     51163    |    66287
        5  | 14:43.63 |  3:28.36 |     66288    |    81923
        6  | 18:12.24 |  3:33.31 |     81924    |    97929

Track  1

     Filename K:\Torrents.ru\Ugly Kid Joe\Singles & EPs\2012 - Staiway To Hell EP\01. Ugly Kid Joe - Devil's Paradise.wav

     Pre-gap length  0:00:02.00

     Peak level 100.0 %
     Extraction speed 1.9 X
     Track quality 100.0 %
     Test CRC 9DB6770E
     Copy CRC 9DB6770E
     Track not present in AccurateRip database
     Copy OK

Track  2

     Filename K:\Torrents.ru\Ugly Kid Joe\Singles & EPs\2012 - Staiway To Hell EP\02. Ugly Kid Joe - You Make Me Sick.wav

     Peak level 100.0 %
     Extraction speed 1.5 X
     Track quality 99.9 %
     Test CRC 1A7D3867
     Copy CRC 1A7D3867
     Track not present in AccurateRip database
     Copy OK

Track  3

     Filename K:\Torrents.ru\Ugly Kid Joe\Singles & EPs\2012 - Staiway To Hell EP\03. Ugly Kid Joe - No One Survives.wav

     Peak level 100.0 %
     Extraction speed 2.3 X
     Track quality 100.0 %
     Test CRC 53F0329A
     Copy CRC 53F0329A
     Track not present in AccurateRip database
     Copy OK

Track  4

     Filename K:\Torrents.ru\Ugly Kid Joe\Singles & EPs\2012 - Staiway To Hell EP\04. Ugly Kid Joe - I'm Alright.wav

     Peak level 100.0 %
     Extraction speed 2.3 X
     Track quality 100.0 %
     Test CRC 19AC90F0
     Copy CRC 19AC90F0
     Track not present in AccurateRip database
     Copy OK

Track  5

     Filename K:\Torrents.ru\Ugly Kid Joe\Singles & EPs\2012 - Staiway To Hell EP\05. Ugly Kid Joe - Love Ain't True!.wav

     Peak level 100.0 %
     Extraction speed 1.8 X
     Track quality 99.9 %
     Test CRC 78D9E0F1
     Copy CRC 78D9E0F1
     Track not present in AccurateRip database
     Copy OK

Track  6

     Filename K:\Torrents.ru\Ugly Kid Joe\Singles & EPs\2012 - Staiway To Hell EP\06. Ugly Kid Joe - Another Beer.wav

     Peak level 100.0 %
     Extraction speed 2.6 X
     Track quality 100.0 %
     Test CRC 1AB1261E
     Copy CRC 1AB1261E
     Track not present in AccurateRip database
     Copy OK

None of the tracks are present in the AccurateRip database

No errors occurred

End of status report
Код:
-----------------------

DON'T MODIFY THIS FILE

-----------------------

PERFORMER: auCDtect Task Manager, ver. 1.5.1RC6 build 1.5.1.7
Copyright (c) 2008-2010 y-soft. All rights reserved
http://y-soft.org

ANALYZER: auCDtect: CD records authenticity detector, version 0.8.2
Copyright (c) 2004 Oleg Berngardt. All rights reserved.
Copyright (c) 2004 Alexander Djourik. All rights reserved.

FILE: 06. Ugly Kid Joe - Another Beer.flac
  Size: 26470404 Hash: D991000B6898827C2A9A69E984D23EA8 Accuracy: -m0
  Conclusion: CDDA 100%
  Signature: 7B78E6EECF296E4A153D3C6837862E8D835A83A8
FILE: 05. Ugly Kid Joe - Love Ain't True!.flac
  Size: 27592595 Hash: 29C4F7F42CE60BE6DCFACAB846155F29 Accuracy: -m0
  Conclusion: CDDA 100%
  Signature: 466D8095E082FC9C206EE2CF68C915E280CF9B79
FILE: 04. Ugly Kid Joe - I'm Alright.flac
  Size: 26525837 Hash: 2B82835906391E3A7F48AE68ED488E56 Accuracy: -m0
  Conclusion: CDDA 100%
  Signature: EE9E40BFC936797016FCD819575C6B5BB68917C4
FILE: 03. Ugly Kid Joe - No One Survives.flac
  Size: 27883649 Hash: 2701FF1EC15D49EF44B283CE0BC1ECC9 Accuracy: -m0
  Conclusion: CDDA 100%
  Signature: B8390E898CBBC9352E8D83C6FA13FA5ED3C162DA
FILE: 02. Ugly Kid Joe - You Make Me Sick.flac
  Size: 30567484 Hash: B758475F017A6599A10775C8B1439E7E Accuracy: -m0
  Conclusion: CDDA 99%
  Signature: F2C3C6AB0EDCE6B20C49642B51DD18B0EC4E8C9E
FILE: 01. Ugly Kid Joe - Devil's Paradise.flac
  Size: 28575756 Hash: 7075EC786A4F707A4857BDC91304D431 Accuracy: -m0
  Conclusion: CDDA 100%
  Signature: 21304B35757B55ADEFF0A80E0DE7333E2720166D
Продолжительность: 00:21:46

Благодарность за все рипы: amoral



Группа "Ugly Kid Joe", исполнявшая хард-рок с налетом фанка и ню-металла, появилась на калифорнийской сцене в 1992 году. Ее прообразом была обычная школьная команда из городка Исла Виста, носившая название "Overdrive" и состоявшая из Уитфилда Крэйна (вокал), Клауса Эйхштадта (гитара), Роджера Лара (гитара), Корделла Крокетта (бас) и Марка Дэйвиса (ударные).
Как обычно, в период становления коллектив прошел через серию кадровых перестановок и вереницу смен вывесок. В итоге ребята остановились на названии "Ugly Kid Joe", взятого "наоборот" от популярного в то время акта "Pretty Boy Floyd". Довольно быстро заработав неплохую концертную репутацию, парни записали мини-альбом "As ugly as they wanna be".
Несмотря на то, что диск издавался небольшим инди-лейблом ("Stardog"), тираж его перевалил за миллион экземпляров. В конечном итоге "As ugly as they wanna be" стал первым EP, получившим мультиплатиновый статус.
Ugly kid JoeА все это произошло благодаря неимоверно популярному синглу "Everything about you". Такой оглушительный успех никак не мог пройти мимо крупных рекорд-компаний, и первой фирмой, смекнувшей что на "Ugly Kid Joe" можно неплохо заработать, оказалась "Mercury records". Перед записью первого полнометражного альбома Роджера Лара сменил Дэйв Фортман (экс-"Sugartooth"). Название диска "America's least wanted" представляло собой пародию на пластинку Айс Кьюба "Amerikkka's most wanted". Наибольшей популярностью на альбоме пользовалась кавер-версия "Cats in the cradle" Харри Чапина.
Эта песня, также как и другой хит, "Neighbor", получила длительную прописку на MTV. В поддержку альбома "Ugly Kid Joe" раскатывали в компании самого Оззи Осборна, так что приток большого количества фанов им был легко обеспечен.
Ugly kid JoeВ 1994 году команда осталась без барабанщика, и некоторое время вакансию занимал Боб Фернандес, но потом на постоянной основе в группу был принят Шэннон Ларкин. Он принял участие в создании третьего альбома, "Menace to sobriety", пародировавшего на этот раз название фильма "Menace II society". На этом релизе музыканты предприняли попытку добиться по настоящему зрелого саунда. Самой лучшей вещицей на диске оказалась композиция "Milkman's son", уводящая слушателя в славные буги-времена "Lynyrd skynyrd" и "Foghat". "Ugly Kid Joe" прокатились по Европе и Америке, а по возвращении с гастролей… остались без контракта.
Наплевав на мажоров, музыканты взялись выпускать очередной альбом собственными силами. Однако то ли творческий запал у них кончился, то ли сказалось отсутствие солидной поддержки, но "Motel California" не смог повторить успеха предыдущих релизов. В результате парни не стали больше испытывать судьбу и распустили команду.
«Ugly Kid Joe» (русск. «Уродец Джо») — американская рок-группа из Исла-Висты (англ. Isla Vista), штат Калифорния. Существовала с 1989 по 1997 годы. Лидер группы и вокалист — Уитфилд Крейн (англ. Whitfield Crane). Наиболее известные песни группы — «Everything About You» и «Cats In The Cradle».
В 2010 году группа воссоединилась. В ближайшее время группа записала новый EP в оригинальном составе. Выпуск EP Stairway to Hell запланирован на 5 июня 2012 года.

Current members

Whitfield Crane – lead vocals (1989–1997, 2010–present)
Dave Fortman – guitars, backing vocals (early 1992–1997, 2010–present)
Klaus Eichstadt – guitars, backing vocals (1989–1997, 2010–present)
Cordell Crockett – bass guitar, backing vocals (1991–1997, 2010–present)
Shannon Larkin – drums, percussion (1994–1997, 2010–present)

Former members
Jonathan Spaulding"' - drums, lyrics (1986–1989)
"'Erik Phillips"' - lead guitar, lyrics, music (1986–1989)
Stephen Dane-guitars, backing vocals (1988–1989)
Phil Hilgaertner – bass guitar, backing vocals (1987–1991)
Roger Lahr – guitars, backing vocals (early 1991–early 1992)
Mark Davis – drums, percussion (1989–1993)
Bob Fernandez – drums, percussion (1994)

Дискография
1991 - As Ugly as They Wanna Be (EP)
1992 - America's Least Wanted
1993 - Get Outta My Face (Bootleg)
1995 - Menace to Sobriety
1996 - Motel California
1998 - The Very Best of Ugly Kid Joe: As Ugly as It Gets
2002 - The Collection
2012 - Staiway To Hell EP








Время раздачи: 10:00 - 02:00
[NNM-Club.ru]_Ugly Kid Joe.torrent
 Торрент: Золотая раздача  Зарегистрирован
 


Зарегистрируйтесь и скачайте торрент!
 Зарегистрирован:   23 Авг 2012 16:19:22
 Размер:   2,95 GB  (
 Рейтинг:   4,3 (Голосов: 15)
 Поблагодарили:   37
 Проверка:   Оформление проверено модератором 29 Авг 2012 14:26:50
Как cкачать  ·  Как раздать  ·  Правильно оформить  ·  Поднять ратио!  


Последний раз редактировалось: alex1248 (29 Авг 2012 13:25:35), всего редактировалось 1 раз
Kushin


Стаж: 3 года 5 мес.
Сообщений: 18
Ratio: 8,95
66.3%
russia.gif

Сообщение 17 Окт 2013 07:45:53  Заголовок сообщения: Ответить с цитатой

Вот СПАСИБО! Давно искал эту группу!
Показать сообщения:   
Начать новую тему   Ответить на тему    Торрент-трекер NNM-Club -> Rock, Alternative, Punk, Metal -> Hard Rock (Lossless) Часовой пояс: GMT + 4
Страница 1 из 1