Классический форум-трекер
canvas not supported
Нас вместе: 4 071 106
loading...

Фараоны (1964) TVRip


 
 
RSS
Начать новую тему   Ответить на тему    Торрент-трекер NNM-Club -> Театр и Музыкальное видео -> Театр
Автор Сообщение
nnmclub0112 ®
Стаж: 7 лет 3 мес.
Сообщений: 3847
Ratio: 115,167
Поблагодарили: 246262
100%
Фараоны (1964) TVRip
Год выпуска: 1964
Страна: СССР
Производство: Киевская студия телевидения

Язык: Украинский
Жанр: Комедия
Режиссер: Исаак Шмарук
Операторы: Александр Деряжный, Сергей Ревенко, Александр Суский, В. Шустинский
Актеры: Михаил Покотило, Ольга Кусенко, Николай Панасьев, Галина Слипенко, Виктор Цимбалист, Нонна Копержинская, Петр Бондарчук, Наталия Лотоцкая, Г. Соколова, Николай Яковченко, Николай Шутько, Костя Ильницкий

Описание:
«То, на чем сделали свою карьеру Верка Сердючка, Шифрин и др., изначально придумал незаслуженно забытый украинский драматург Олекса Коломиец, а именно - классическую перверзию, когда мужчины меняются с женщинами местами. Это происходит в его пьесе «Фараоны». В 60-х годах прошедшего века в Киеве не было ни одного театра, который бы не поставил «Фараонов». «Фараоны» - очень смешная, почти фарсовая комедия.
Фильм-спектакль Киевского Государственного академического украинского театра им. Ив. Франко г.Киев по пьесе Олексы Коломийца.
Место действия - обычное село в период советской власти, где все руководящие посты заняты исключительно мужчинами. Но после одной бурной ночи с песнями и большим количеством самогона проснувшиеся мужики обнаруживают, что теперь всем заправляют женщины и ведут они себя точно так же, как мужчины.

Продолжительность: 01:15:08



Видеокодек: Xvid
Битрейт видео: ~1175 Кбит/сек
Размер кадра: 640x480
Качество видео: TVRip
Аудиокодек: AC3 2.0
Битрейт аудио: 192 Кбит/сек
Общее
Полное имя : K:\Cоветские_Российские 1\!для nnm-club\5Фараоны\Фараоны.avi
Формат : AVI
Формат/Информация : Audio Video Interleave
Размер файла : 740 Мбайт
Продолжительность : 1 ч. 15 м.
Общий поток : 1377 Кбит/сек
Название фильма : ФАРАОНИ
Программа кодирования : VirtualDubMod 1.5.10.2 (build 2540/release) VirtualDubMod build 2540/release
Правообладатель : ©2005 AlexPAINter

Видео
Идентификатор : 0
Формат : MPEG-4 Visual
Профиль формата : Advanced Simple@L5
Параметр BVOP формата : 2
Параметр QPel формата : Нет
Параметр GMC формата : Без точки перехода
Параметр матрицы формата : Default (H.263)
Режим смешивания : Сжатый битовый поток
Идентификатор кодека : XVID
Идентификатор кодека/Подсказка : XviD
Продолжительность : 1 ч. 15 м.
Битрейт : 1175 Кбит/сек
Ширина : 640 пикселей
Высота : 480 пикселей
Соотношение сторон : 5:4
Соотношение сторон в оригинале : 4:3
Частота кадров : 25,000 кадров/сек
Цветовое пространство : YUV
Субдискретизация насыщенности : 4:2:0
Битовая глубина : 8 бит
Тип развёртки : Прогрессивная
Метод сжатия : С потерями
Бит/(Пиксели*Кадры) : 0.153
Размер потока : 632 Мбайт (85%)
Библиотека кодирования : XviD 1.0.3 (UTC 2004-12-20)

Аудио
Идентификатор : 1
Формат : AC-3
Формат/Информация : Audio Coding 3
Расширение режима : CM (complete main)
Параметр Endianness формата : Big
Идентификатор кодека : 2000
Продолжительность : 1 ч. 15 м.
Вид битрейта : Постоянный
Битрейт : 192 Кбит/сек
Каналы : 2 канала
Расположение каналов : Front: L R
Частота : 48,0 КГц
Битовая глубина : 16 бит
Метод сжатия : С потерями
Размер потока : 103 Мбайт (14%)
Выравнивание : Разделение по промежуткам
Продолжительность промежутка : 40 мс. (1,00 видеокадр)
Время предзагрузки промежутка : 500 мс.
Язык : Undefined
Скриншоты:




Время раздачи: C 9:00 до 23:00
[NNM-Club.ru]_Faraonyi.avi.torrent
 Торрент: Платиновая раздача  Зарегистрирован
 
Скачать


 Зарегистрирован:   20 Авг 2012 22:28:54
 Размер:   740 MB  (
 Рейтинг:   4,7 (Голосов: 49)
 Поблагодарили:   178
 Проверка:   Оформление проверено модератором 23 Авг 2012 08:41:19
Как cкачать  ·  Как раздать  ·  Правильно оформить  ·  Поднять ратио!  
pavlvl
Стаж: 7 лет 6 мес.
Сообщений: 108
Ratio: 16,271
100%
Ура! Нашёл! Спасибо! :респект:
SubМарина
Uploader 200+
Стаж: 8 лет 6 мес.
Сообщений: 684
Ratio: 2057,503
Раздал: 280,7 TB
100%
Откуда: Севастополь
ussr.gif
Нифигасебе!!! Вот это РАРИТЕТИЩЩЕ!!! Полный и абсолютный РИСПЕКТ!!! СПАСИБО!!!

_________________
kubobix
Стаж: 7 лет 7 мес.
Сообщений: 142
Ratio: 76,734
100%
ukraine.gif
Цікаво... Вельми дякую!!! =)
Стоит посмотреть хотя бы ради Николая Яковченко.
Timdesign
Стаж: 6 лет
Сообщений: 42
Ratio: 26,03
32.37%
нет раздающих(((
Северный_Гуляка
Стаж: 7 лет 1 мес.
Сообщений: 677
Ratio: 111,468
Поблагодарили: 625
100%
Откуда: СЕВЕР
ussr.gif
Пишем в [ЛС], если нужно скачать этот шедевр 1964 года.
другие раздачи Театр - по желанию и наличию. :подмигивание:

_________________
Поддержу Интересные РедкоСидируемые Раздачи - Смотри (список) "Спасибо" (просьбу-ссылку в Личную берлогу - [ЛС]) [НОЧЬ по МСК Предпочтение]
eniki_beniki
Стаж: 5 лет 1 мес.
Сообщений: 5
100%
Огромное спасибо!
vve60
Стаж: 3 года 7 мес.
Сообщений: 25
Ratio: 4,266
92.45%
Действительно шедевр! Помню, смотрел его по телеку. Спасибо!
Показать сообщения:   
Начать новую тему   Ответить на тему    Торрент-трекер NNM-Club -> Театр и Музыкальное видео -> Театр Часовой пояс: GMT + 3
Страница 1 из 1