Интеллигентный торрент-трекер
Нас вместе: 3 841 329 | Новости торрент-трекера | Как тут скачивать? | Как раздавать торренты? | Правила оформления

Скачать бесплатно торрент Тайные агенты / Agents secrets (2004) DVD9 torrent download


 
 
RSS
Начать новую тему   Ответить на тему    Торрент-трекер NNM-Club -> Архив торрентов -> Архив Видео
Предыдущая тема :: Следующая тема 
Автор Сообщение
Pyliah ®
Зам. Куратора Игр
RG Games
 
Стаж: 5 лет 6 мес.
Сообщений: 18377
Ratio: 940,439
Поблагодарили: 91386
100%
Откуда: Україна
ukraine.gif
Сообщение 12 Авг 2012 17:05:21  Заголовок сообщения: Тайные агенты / Agents secrets (2004) DVD9 Ответить с цитатой

«Тайные агенты»
«Критиками отмечалось, что фильм не похож на типичные шпионские боевики.
По их мнению, режиссёр показывает «определённые стороны реальной работы тайных агентов».»

Оригинальное название: Agents secrets
Русское название: Тайные агенты
Жанр: Триллер
Год выпуска: 2004
Дата мировой премьеры: 31 марта 2004

Описание фильма:
Французское правительство отправляет группу агентов для выполнения ответственного задания: Бриссо, Лиза, Лоик, Тони и Раймон должны уничтожить целый корабль. Тот, который по воле его русского хозяина Игоря Липовского, обосновавшегося в Швейцарии, везет в Анголу оружие для тамошних бандформирований.
Название операции французских спецагентов — «Янус». Она должна стать последней в служебной карьере Бриссо, и после выполнения задания он надеется заняться личной жизнью…

Продюсер: Эрик Нивё, Рикардо Гарсия Арройо
Режиссер: Фредерик Шёндёрфер
Сценарий: Янн Брион, Жан Космо, Оливье Дуиер
Оператор: Жан-Пьер Совер
Композитор: Бруно Куле
Художник: Жан-Баптист Пуаро, Николь Феррари, Вирджиния Монтель
Актеры: Венсан Кассель, Моника Беллуччи, Андре Дюссолье, Шарль Берлэнг, Бруно Тодескини, Серджо Перис-Менчета, Людовик Шёндёрффер, Эрик Савин, Серж Аведикян, Гэбриэлль Лазур, ...

Продолжительность: 01:45:24
Перевод: Дублированный [Мосфильм Мастер]
Субтитры: Отсутствуют

Качество видео: DVD9 DVD Video
Видео: MPEG-2, ~6170 kb/s VBR (25,000 fps; 0.595 qf), 720x576 PAL (16:9)
Аудио #1: Русский Dolby, AC-3 5.1 (6 ch), 448 kb/s CBR (48 kHz)
Аудио #2: Английский Dolby, DTS (6 ch), 755 kb/s CBR (48 kHz)
Меню: Анимированное / Озвученное










Код:

Общее
Полное имя                               : D:\***\Taynie_agenti_DVD9\VIDEO_TS\VTS_05_2.VOB
Формат                                   : MPEG-PS
Размер файла                             : 1024 Мбайт
Продолжительность                        : 19 м.
Режим общего битрейта                    : Переменный
Общий поток                              : 7522 Кбит/сек

Видео
Идентификатор                            : 224 (0xE0)
Формат                                   : MPEG Video
Версия формата                           : Version 2
Профиль формата                          : Main@Main
Параметр BVOP формата                    : Да
Параметр матрицы формата                 : Выборочная
Продолжительность                        : 19 м.
Вид битрейта                             : Переменный
Битрейт                                  : 6170 Кбит/сек
Максимальный битрейт                     : 9000 Кбит/сек
Ширина                                   : 720 пикселей
Высота                                   : 576 пикселей
Соотношение сторон                       : 16:9
Частота кадров                           : 25,000 кадров/сек
Стандарт вещания                         : PAL
Цветовое пространство                    : YUV
Субдискретизация насыщенности            : 4:2:0
Битовая глубина                          : 8 бит
Тип развёртки                            : Чересстрочная
Порядок развёртки                        : Верхнее поле первое
Метод сжатия                             : С потерями
Бит/(Пиксели*Кадры)                      : 0.595
Размер потока                            : 840 Мбайт (82%)

Аудио #1
Идентификатор                            : 189 (0xBD)-128 (0x80)
Формат                                   : AC-3
Формат/Информация                        : Audio Coding 3
Расширение режима                        : CM (complete main)
Параметр Endianness формата              : Big
Режим смешивания                         : DVD-Video
Продолжительность                        : 19 м.
Вид битрейта                             : Постоянный
Битрейт                                  : 448 Кбит/сек
Каналы                                   : 6 каналов
Расположение каналов                     : Front: L C R, Side: L R, LFE
Частота                                  : 48,0 КГц
Битовая глубина                          : 16 бит
Метод сжатия                             : С потерями
Задержка видео                           : -696 мс.
Размер потока                            : 61,0 Мбайт (6%)

Аудио #2
Идентификатор                            : 189 (0xBD)-137 (0x89)
Формат                                   : DTS
Формат/Информация                        : Digital Theater Systems
Режим смешивания                         : DVD-Video
Продолжительность                        : 19 м.
Вид битрейта                             : Постоянный
Битрейт                                  : 755 Кбит/сек
Каналы                                   : 6 каналов
Расположение каналов                     : Front: L C R, Side: L R, LFE
Частота                                  : 48,0 КГц
Битовая глубина                          : 24 бит
Метод сжатия                             : С потерями
Задержка видео                           : -728 мс.
Размер потока                            : 103 Мбайт (10%)

Меню

Код:

Title: Taynie_agenti_DVD9
Size: 6.18 Gb ( 6 476 968,00 KBytes ) - DVD-9
Enabled regions: 1, 2, 3, 4, 5, 6, 7, 8

VTS_01 :
  Play Length: 00:00:10
  Video: PAL 4:3 (720x576) VBR

VTS_02 :
  Play Length: 00:00:11
  Video: PAL 4:3 (720x576) VBR
  Audio:
      Not specified (Dolby AC3, 6 ch)

VTS_03 :
  Play Length: 00:00:14
  Video: PAL 4:3 (720x576) VBR
  Audio:
      Not specified (Dolby AC3, 2 ch)
      Not specified (Dolby AC3, 2 ch)
      Not specified (Dolby AC3, 2 ch)
  Subtitles:
      Not specified

VTS_04 :
  Play Length: 00:00:17
  Video: PAL 4:3 (720x576) VBR
  Audio:
      Not specified (Dolby AC3, 6 ch)
      Not specified (Dolby AC3, 6 ch)
      Not specified (Dolby AC3, 6 ch)
  Subtitles:
      Not specified

VTS_05 :
  Play Length: 01:45:24
  Video: PAL 16:9 (720x576) VBR, Auto Letterboxed
  Audio:
      Russian (Dolby AC3, 6 ch)
      Russian (DTS, 5 ch)

VTS_06 :
  Play Length: 00:01:26
  Video: PAL 4:3 (720x576) VBR
  Audio:
      Not specified (Dolby AC3, 6 ch)
  Subtitles:
      Not specified

VTS_07 :
  Play Length: 00:01:56
  Video: PAL 4:3 (720x576) VBR
  Audio:
      Not specified (Dolby AC3, 2 ch)
  Subtitles:
      Not specified

VTS_08 :
  Play Length: 00:02:25
  Video: PAL 4:3 (720x576) VBR
  Audio:
      Not specified (Dolby AC3, 2 ch)
  Subtitles:
      Not specified

VTS_09 :
  Play Length: 00:02:23
  Video: PAL 4:3 (720x576) VBR
  Audio:
      Not specified (Dolby AC3, 2 ch)
  Subtitles:
      Not specified

VTS_10 :
  Play Length: 00:02:18
  Video: PAL 4:3 (720x576) VBR
  Audio:
      Not specified (Dolby AC3, 2 ch)
  Subtitles:
      Not specified

VTS_11 :
  Play Length: 00:02:16
  Video: PAL 4:3 (720x576) VBR
  Audio:
      Not specified (Dolby AC3, 2 ch)
  Subtitles:
      Not specified


Благодарности:
mmx4531
за материал
D. Gluhova & nini & Le Ve
за стимул и вдохновение
[NNM-Club.ru]_Taynie_agenti_DVD9.torrent
 Торрент: Серебряная раздча  Зарегистрирован
 


Зарегистрируйтесь и скачайте торрент!
 Зарегистрирован:   12 Авг 2012 17:05:22
 Размер:   6,18 GB  (
 Рейтинг:   5 (Голосов: 14)
 Поблагодарили:   46
 Проверка:   Оформление проверено модератором 13 Авг 2012 15:11:40
Как cкачать  ·  Как раздать  ·  Правильно оформить  ·  Поднять ратио!  

_________________
Йоу! ^_^
LLIYR1k
Стаж: 3 года 5 мес.
Сообщений: 2885
Ratio: 91,244
Раздал: 5,538 TB
Поблагодарили: 23826
100%
Откуда: Сумы
ukraine.gif
Сообщение 12 Авг 2012 17:24:34  Заголовок сообщения: Ответить с цитатой

Хммм... А Моника Белуччи изменилась, судя по постеру (или изменился) :смех:
А так фильм неплохой. Смотрел на английском - понравился
Сообщение 29 Авг 2013 10:16:31

Топик был перенесен из форума Зарубежные Фильмы (DVD) в форум Архив Видео

Причина переноса: сида не было более месяца.
Alex_shadow
Показать сообщения:   
Начать новую тему   Ответить на тему    Торрент-трекер NNM-Club -> Архив торрентов -> Архив Видео Часовой пояс: GMT + 3
Страница 1 из 1