Интеллигентный торрент-трекер
canvas not supported
Нас вместе: 4 348 107

Зеркало для героя (1987) DVD5


Страницы:  1, 2  След. 
 
RSS
Начать новую тему   Ответить на тему    Торрент-трекер NNM-Club -> Отечественное кино -> Отечественные Фильмы (DVD)
Автор Сообщение
SJSti​llAli​ve​ ®
Покровитель талантов
 
Стаж: 6 лет 2 мес.
Сообщений: 1466
Ratio: 28,238
Раздал: 16,78 TB
Поблагодарили: 67817
41.95%
logo.gif
Зеркало для героя (1987) DVD5
Жанр: Драма, Фантастика

Описание:
Двое случайных знакомых, Сергей Пшеничный и Андрей Немчинов, волею загадочных обстоятельств переносятся почти на 40 лет назад. Этот день — 8 мая 1949 года — начинает повторяться для них с неумолимым постоянством. Каждому из героев судьба дает свой шанс: Андрей может предотвратить гибель людей в обветшавшей шахте, Сергей — по-новому взглянуть на своих родителей и понять их.

Режиссер: Владимир Хотиненко
Актеры: Сергей Колтаков, Иван Бортник, Борис Галкин, Александр Песков

Продолжительность: 02:11:34
Субтитры: отсутствуют



Видеокодек: MPEG-2
Битрейт видео: ~3994 Кбит/сек
Размер кадра: 720 х 576@768 х 576
Качество видео: DVD5
Аудиокодек: AC3 2.0
Битрейт аудио: 224 Кбит/сек
Общее
Полное имя : F:\Zerkalo_dlya_geroya\VIDEO_TS\VTS_01_2.VOB
Формат : MPEG-PS
Размер файла : 1023 Мбайт
Продолжительность : 33 м.
Общий поток : 4304 Кбит/сек

Видео
Идентификатор : 224 (0xE0)
Формат : MPEG Video
Версия формата : Version 2
Профиль формата : Main@Main
Параметр BVOP формата : Да
Параметр матрицы формата : По умолчанию
Параметры GOP формата : M=3, N=15
Продолжительность : 33 м.
Вид битрейта : Переменный
Битрейт : 3994 Кбит/сек
Номинальный битрейт : 8500 Кбит/сек
Ширина : 720 пикс.
Высота : 576 пикс.
Соотношение сторон : 4:3
Частота кадров : 25,000 кадр/сек
Стандарт вещания : PAL
Цветовое пространство : YUV
Подвыборка цветности : 4:2:0
Битовая глубина : 8 бит
Тип развёртки : Чересстрочная
Порядок развёртки : Нижнее поле первое
Метод сжатия : С потерями
Бит/(Пиксели*Кадры) : 0.385
Размер потока : 950 Мбайт (93%)

Аудио
Идентификатор : 189 (0xBD)-128 (0x80)
Формат : AC-3
Формат/Информация : Audio Coding 3
Расширение режима : CM (complete main)
Режим смешивания : DVD-Video
Продолжительность : 33 м.
Вид битрейта : Постоянный
Битрейт : 224 Кбит/сек
Каналы : 2 канала
Расположение каналов : Front: L R
Частота : 48,0 КГц
Битовая глубина : 16 бит
Метод сжатия : С потерями
Задержка видео : -216 мс.
Размер потока : 53,3 Мбайт (5%)

Меню
Title: Zerkalo_dlya_geroya
Size: 3.96 Gb ( 4 156 490,00 KBytes ) - DVD-5
Enabled regions: 1, 2, 3, 4, 5, 6, 7, 8

VTS_01 :
Play Length: 00:00:18+02:11:16
Video: PAL 4:3 (720x576) VBR
Audio:
Russian (Dolby AC3, 2 ch)

* Menus Information *

VIDEO_TS Menu
Video:
NTSC 4:3 (720x480) VBR
Auto Pan&Scan, Auto Letterboxed
Language Unit :

VTS_01 Menu
Video:
PAL 4:3 (720x576) VBR
Russian Language Unit :
Root Menu
Angle menu
Chapter (PTT) Menu
Дополнительные материалы: фильмографии
Меню: на русском языке
Скриншоты:

Время раздачи: практически ежедневно с 12 до 4 до 10 скачавших

Все раздачи Зеркало для героя на NNM-CLUB
[NNMClub.to]_Zerkalo_dlya_geroya.torrent
 Торрент: Платиновая раздача  Зарегистрирован
 
Примагнититься

Скачать
 Зарегистрирован:   19 Май 2017 14:16:10
 Размер:   3,96 GB  (
 Рейтинг:   4,8 (Голосов: 76)
 Поблагодарили:   222
 Проверка:   Оформление проверено модератором 19 Май 2017 16:24:56
Как cкачать  ·  Как раздать  ·  Правильно оформить  ·  Поднять ратио!  
Загрузка...
klodklod
Стаж: 5 лет 9 мес.
Сообщений: 341
Ratio: 4,707
100%
Откуда: Дровишки?
russia.gif
В свое время фильм очень порадовал. Так сказать наш вариант "Назад в будущее"
aleXX​Xpank​2010​
Стаж: 6 лет 11 мес.
Сообщений: 625
Ratio: 0,981
7.26%
ussr.gif
Скорее наш вариант "День сурка"
klodklod
Стаж: 5 лет 9 мес.
Сообщений: 341
Ratio: 4,707
100%
Откуда: Дровишки?
russia.gif
И того и другого)
MS
Стаж: 10 лет 5 мес.
Сообщений: 375
Ratio: 16,628
Раздал: 26,34 TB
Поблагодарили: 400
100%
Откуда: Москва
russia.gif
вообще то день сурка был снят немного позже.
dimitrii36
Стаж: 5 лет 2 мес.
Сообщений: 248
Ratio: 36,131
100%
Откуда: от верблюда
witch.png
У каждого фильма свой зритель,смотрел,остался доволен.

_________________
Благодарю за труды. Когда мы едины,мы непобедимы!
KVadik
Стаж: 10 лет 1 мес.
Сообщений: 57
Ratio: 3,996
0.24%
ussr.gif
aleXXXpank2010 писал(а): Перейти к сообщению
Скорее наш вариант "День сурка"


Скорее "День сурка" (1993) их вариант "Зеркала для героя" (1987) :показывает язык:
BarShadow
Куратор КПК
и Мобилок
Стаж: 6 лет 2 мес.
Сообщений: 16009
Ratio: 46,116
Поблагодарили: 19465
97.15%
Откуда: Пятая планета от Солнца
wild_hogs.gif
Спасибо большое. Очень интересное кино.
Raviolli80
Стаж: 5 лет 3 мес.
Сообщений: 5
Ratio: 0,836
0%
kazakhstan.gif
Давно искал это кино, не знал только названия. Отличный фильм.
SJSti​llAli​ve​ ®
Покровитель талантов
 
Стаж: 6 лет 2 мес.
Сообщений: 1466
Ratio: 28,238
Раздал: 16,78 TB
Поблагодарили: 67817
41.95%
logo.gif
Один из моих любимых фильмов
4EXTbI
 
Стаж: 5 лет 10 мес.
Сообщений: 6864
Ratio: 238,34
Раздал: 43,28 TB
100%
Откуда: Море Байкал
ussr.gif
Странное, неуловимое ощущение искусства... Смотрите.

_________________
avrora7
RG Music
 
Стаж: 2 года 5 мес.
Сообщений: 4130
Ratio: 72,571
Поблагодарили: 49301
100%
cod4.gif
Сильнейший фильм.. спасибо.
Скорее с него "день сурка" и "сняли".

_________________
Улыбайтесь, господа. Улыбайтесь! (Мюнхга́узен).
vitstep
Стаж: 6 лет 6 мес.
Сообщений: 111
Ratio: 58,442
17.34%
ussr.gif
Ну тут уже все сказали, что "День сурка" срисовали с этого фильма, так что я просто соглашусь. :респект:
бабай17
Uploader 500+

Online
Стаж: 1 год 6 мес.
Сообщений: 112
Ratio: 25K
100%
ussr.gif
Хороший фильм.Интересно пересмотреть.
Nurim
Стаж: 8 лет
Сообщений: 492
Ratio: 5,425
100%
Откуда: Almaty
kazakhstan.gif
Хорошее кино.

Цитата:
Они не помнят ничего! Ни добра, ни зла. Как градусник! Стряхнул — и нет ничего…
Показать сообщения:   
Начать новую тему   Ответить на тему    Торрент-трекер NNM-Club -> Отечественное кино -> Отечественные Фильмы (DVD) Часовой пояс: GMT + 3
Страницы:  1, 2  След.
Страница 1 из 2