Интеллигентный торрент-трекер
canvas not supported
Нас вместе: 3 957 959

Форс-мажоры / Костюмы в законе / Suits (2012) WEB-DLRip (Cезон 2, 1-16 из 16) (NewStudio)


Страницы:   Пред.  1, 2 
 
RSS
Начать новую тему   Ответить на тему    Торрент-трекер NNM-Club -> Зарубежные сериалы
Автор Сообщение
MAX-.94 ®
Стаж: 5 лет 10 мес.
Сообщений: 204
Ratio: 7,428
Поблагодарили: 5654
82.81%
russia.gif
Форс-мажоры / Костюмы в законе / Suits (2012) WEB-DLRip (Cезон 2, 1-16 из 16) (NewStudio)
Русское название: Форс-мажоры / Костюмы в законе
Оригинальное название: Suits
Год выпуска: 2012
Жанр: Драма, Комедия

Перевод: Двуголосый закадровый, профессиональный
Озвучка / Автор перевода: NewStudio
Вид субтитров: Отсутствуют



Режиссер: Кевин Брэй, Джон Скотт
Актеры: Гэбриел Махт, Патрик Адамс, Рик Хоффман, Меган Маркл, Сара Рафферти, Джина Торрес, Ванесса Рэй, Max Topplin, Ребекка Шалл и др.

Описание фильма:
Убегая после неудачной попытки сбыта наркотиков, юрист-самоучка Майк Росс, выдающий себя за выпускника Гарварда, попадает на собеседование к одному из лучших адвокатов по сделкам Нью-Йорка Харви Спектру. Устав от скучных соискателей, мечтающих «верой и правдой служить букве закона», Харви рискует и нанимает Майка: у парня врожденный талант и фотографическая память. Так рождается один из самых неоднозначных, но, в то же время, и самых блестящих тандемов законников на Манхэттене.

Продолжительность: ~ 00:45:00
Качество видео: WEB-DLRip
Семпл

Видеокодек: Xvid
Аудиокодек: MP3, 2 ch
Размер кадра: 720x400
Битрейт видео: ~1350 kbps
Аудио Rus: ~128 kbps |NewStudio|
Аудио Eng: ~128 kbps |Original|
Общее
Формат: AVI
Формат/Информация: Audio Video Interleave
Размер файла: 550 Мбайт
Продолжительность: 47 м.
Режим общего битрейта: Переменный
Общий поток: 1629 Кбит/сек
Программа кодирования: VirtualDubMod 1.5.10.2 (build 2540/release)
Библиотека кодирования: VirtualDubMod build 2540/release

Видео
Идентификатор: 0
Формат: MPEG-4 Visual
Профиль формата: Advanced Simple@L5
Параметр BVOP формата: 2
Параметр QPel формата: Нет
Параметр GMC формата: Без точки перехода
Параметр матрицы формата: Default (MPEG)
Идентификатор кодека: XVID
Идентификатор кодека/Подсказка: XviD
Продолжительность: 47 м.
Битрейт: 1355 Кбит/сек
Ширина: 720 пикселей
Высота: 400 пикселей
Соотношение сторон: 16:9
Частота кадров: 23,976 кадра/сек
Цветовое пространство: YUV
Субдискретизация насыщенности: 4:2:0
Битовая глубина: 8 бит
Тип развёртки: Прогрессивная
Метод сжатия: С потерями
Бит/(Пиксели*Кадры): 0.196
Размер потока: 458 Мбайт (83%)
Библиотека кодирования: XviD 64

Аудио #1
Идентификатор: 1
Формат: MPEG Audio
Версия формата: Version 1
Профиль формата: Layer 3
Режим: Joint stereo
Расширение режима: MS Stereo
Идентификатор кодека: 55
Идентификатор кодека/Подсказка: MP3
Продолжительность: 47 м.
Вид битрейта: Постоянный
Битрейт: 128 Кбит/сек
Каналы: 2 канала
Частота: 48,0 КГц
Метод сжатия: С потерями
Размер потока: 43,2 Мбайт (8%)
Выравнивание: Соединение по промежуткам
Продолжительность промежутка: 42 мс. (1,00 видеокадр)
Время предзагрузки промежутка: 504 мс.

Аудио #2
Идентификатор: 2
Формат: MPEG Audio
Версия формата: Version 1
Профиль формата: Layer 3
Режим: Joint stereo
Расширение режима: MS Stereo
Идентификатор кодека: 55
Идентификатор кодека/Подсказка: MP3
Продолжительность: 47 м.
Вид битрейта: Переменный
Битрейт: 128 Кбит/сек
Каналы: 2 канала
Частота: 48,0 КГц
Метод сжатия: С потерями
Размер потока: 43,5 Мбайт (8%)
Выравнивание: Соединение по промежуткам
Продолжительность промежутка: 24 мс. (0,58 видеокадр)
Время предзагрузки промежутка: 503 мс.

Время раздачи: в основном с 22:00 до 17:00, ну а по возможности 24/7

ВСЕ РЕЛИЗЫ
[NNM-Club.ru]_Fors-mazhoryi.torrent
 Торрент: Золотая раздача  Зарегистрирован
 

Free Leech
Зарегистрируйтесь и скачайте торрент!
44,6 KB
 Зарегистрирован:   26 Фев 2013 21:36:34
 Размер:   8,59 GB  (
 Рейтинг:   4,8 (Голосов: 261)
 Поблагодарили:   932
 Проверка:   Оформление проверено модератором 26 Фев 2013 23:07:18
Как cкачать  ·  Как раздать  ·  Правильно оформить  ·  Поднять ратио!  


Последний раз редактировалось: MAX-.94 (26 Фев 2013 21:36:21), всего редактировалось 29 раз(а)
Показать сообщения:   
Начать новую тему   Ответить на тему    Торрент-трекер NNM-Club -> Зарубежные сериалы Часовой пояс: GMT + 3
Страницы:   Пред.  1, 2
Страница 7 из 2