Интеллигентный торрент-трекер
Нас вместе: 3 838 548 | Новости торрент-трекера | Как тут скачивать? | Как раздавать торренты? | Правила оформления

Скачать бесплатно торрент BBC: Внутри человеческого тела / BBC: Inside the Human Body (2011) BDRip [H.264/720p] (4 серии из 4) torrent download


 
 
RSS
Начать новую тему   Ответить на тему    Торрент-трекер NNM-Club -> Зарубежные TV-бренды -> BBC
Предыдущая тема :: Следующая тема 
Автор Сообщение
Отец Лоренцо ®
Uploaders 700+
 

Online
Стаж: 2 года 11 мес.
Сообщений: 3611
Ratio: 6897,332
Раздал: 924 TB
Поблагодарили: 65829
100%
Откуда: Единая Украина
Сообщение 10 Июн 2012 19:37:01  Заголовок сообщения: BBC: Внутри человеческого тела / BBC: Inside the Human Body (2011) BDRip [H.264/720p] (4 серии из 4) Ответить с цитатой

BBC: Внутри человеческого тела / BBC: Inside the Human Body (2011) BDRip [H.264/720p] (1-4 серии из 4)
Русское название: BBC: Внутри человеческого тела
Оригинальное название: BBC: Inside the Human Body
Режиссер / Телекомпания: Великобритания, BBC
Год выпуска: 2011
Жанр: Документальный

Описание: Этот сериал рассказывает о внутреннем мире человеческого тела. Используется эффектная графика, основанная на новейших достижениях науки.
Майкл Мосли приглашает нас в фантастическое путешествие по нашей внутренней вселенной.

Продолжительность: 4 x 00:50:00 (03:20:00)

Перевод: Юлия Мирмович (озвучил Александр Напарин)

Видеокодек: MPEG-4 AVC/H.264
Битрейт видео: ~ 6,5-7,0 Mbps
Размер кадра: 1280x720
Качество видео: BDRip [720p]
Аудио:
1. [русский] AC3, 2ch, 48kHz, 192 kbps
2. [english] DTS, 2ch, 48kHz, 1510 kbps

Описание серий :
Описание: О последовательности биологических событий, которые приводят к человеческому рождению.

Продолжительность: 00:50:03

Видеокодек: MPEG-4 AVC/H.264
Битрейт видео: ~ 7,015 Mbps
Размер кадра: 1280x720
Качество видео: BDRip [720p]
Аудио:
1. [русский] AC3, 2ch, 48kHz, 192 kbps
2. [english] DTS, 2ch, 48kHz, 1510 kbps
Общее
Уникальный идентификатор : 226579883808886080026090562977480434102 (0xAA75B2C3F10C399B8C4C8C011EADE1B6)
Полное имя : f:\Films\Vnutri.chelovecheskogo.tela.(4.serii.iz.4).2011.x264.BDRip.720p\Vnutri.chelovecheskogo.tela.(1.seriya.iz.4).2011.x264.BDRip.720p.mkv
Формат : Matroska
Версия формата : Version 2
Размер файла : 3,05 Гбайт
Продолжительность : 50 м.
Общий поток : 8717 Кбит/сек
Название фильма : Gravitator (Руслан19780)
Дата кодирования : UTC 2012-06-08 10:09:44
Программа кодирования : mkvmerge v4.8.0 ('I Got The...') сборка от May 24 2011 03:12:58
Библиотека кодирования : libebml v1.2.0 + libmatroska v1.1.0

Видео
Идентификатор : 1
Формат : AVC
Формат/Информация : Advanced Video Codec
Профиль формата : High@L4.1
Параметр CABAC формата : Да
Параметр ReFrames формата : 9 кадров
Идентификатор кодека : V_MPEG4/ISO/AVC
Продолжительность : 50 м.
Битрейт : 7015 Кбит/сек
Ширина : 1280 пикселей
Высота : 720 пикселей
Соотношение сторон : 16:9
Частота кадров : 25,000 кадров/сек
Цветовое пространство : YUV
Субдискретизация насыщенности : 4:2:0
Битовая глубина : 8 бит
Тип развёртки : Прогрессивная
Бит/(Пиксели*Кадры) : 0.304
Размер потока : 2,39 Гбайт (78%)
Библиотека кодирования : x264 core 116 r2074 2641b9e
Настройки программы : cabac=1 / ref=9 / deblock=1:-2:-2 / analyse=0x3:0x133 / me=umh / subme=10 / psy=1 / psy_rd=1.00:0.15 / mixed_ref=1 / me_range=32 / chroma_me=1 / trellis=2 / 8x8dct=1 / cqm=0 / deadzone=21,11 / fast_pskip=1 / chroma_qp_offset=-3 / threads=6 / sliced_threads=0 / nr=0 / decimate=1 / interlaced=0 / bluray_compat=0 / constrained_intra=0 / bframes=11 / b_pyramid=2 / b_adapt=2 / b_bias=0 / direct=3 / weightb=1 / open_gop=0 / weightp=2 / keyint=250 / keyint_min=25 / scenecut=40 / intra_refresh=0 / rc_lookahead=60 / rc=2pass / mbtree=1 / bitrate=7015 / ratetol=1.0 / qcomp=0.60 / qpmin=10 / qpmax=51 / qpstep=4 / cplxblur=20.0 / qblur=0.5 / ip_ratio=1.40 / aq=1:1.00
Язык : English

Аудио #1
Идентификатор : 2
Формат : AC-3
Формат/Информация : Audio Coding 3
Расширение режима : CM (complete main)
Идентификатор кодека : A_AC3
Продолжительность : 50 м.
Вид битрейта : Постоянный
Битрейт : 192 Кбит/сек
Каналы : 2 канала
Расположение каналов : Front: L R
Частота : 48,0 КГц
Битовая глубина : 16 бит
Метод сжатия : С потерями
Размер потока : 68,7 Мбайт (2%)
Заголовок : ПО
Язык : Russian

Аудио #2
Идентификатор : 3
Формат : DTS
Формат/Информация : Digital Theater Systems
Идентификатор кодека : A_DTS
Продолжительность : 50 м.
Вид битрейта : Постоянный
Битрейт : 1510 Кбит/сек
Каналы : 2 канала
Расположение каналов : Front: L R
Частота : 48,0 КГц
Битовая глубина : 24 бит
Метод сжатия : С потерями
Задержка видео : 11 мс.
Размер потока : 540 Мбайт (17%)
Заголовок : Английский
Язык : English

Меню
00:00:00.000 : en:00:00:00.000
00:10:40.000 : en:00:10:40.000
00:19:05.000 : en:00:19:05.000
00:30:20.000 : en:00:30:20.000
00:39:48.000 : en:00:39:48.000
00:49:32.000 : en:00:49:32.000
Скриншоты:

Описание: Майкл Мосли показывает, как тело выполняет бесчисленные маленькие чудеса, чтобы остаться в живых.

Продолжительность: 00:48:05
Видеокодек: MPEG-4 AVC/H.264
Битрейт видео: ~ 7,000 Mbps
Размер кадра: 1280x720
Качество видео: BDRip [720p]
Аудио:
1. [русский] AC3, 2ch, 48kHz, 192 kbps
2. [english] DTS, 2ch, 48kHz, 1510 kbps
Общее
Уникальный идентификатор : 236377606135648353426105456375377191732 (0xB1D4ABC59A2FEAFC962A8B6BA8B06334)
Полное имя : F:\Films\Vnutri.chelovecheskogo.tela.(4.serii.iz.4).2011.x264.BDRip.720p\Vnutri.chelovecheskogo.tela.(2.seriya.iz.4).2011.x264.BDRip.720p.mkv
Формат : Matroska
Версия формата : Version 2
Размер файла : 2,92 Гбайт
Продолжительность : 48 м.
Общий поток : 8699 Кбит/сек
Название фильма : Gravitator (Руслан19780)
Дата кодирования : UTC 2012-06-08 10:16:52
Программа кодирования : mkvmerge v4.8.0 ('I Got The...') сборка от May 24 2011 03:12:58
Библиотека кодирования : libebml v1.2.0 + libmatroska v1.1.0

Видео
Идентификатор : 1
Формат : AVC
Формат/Информация : Advanced Video Codec
Профиль формата : High@L4.1
Параметр CABAC формата : Да
Параметр ReFrames формата : 9 кадров
Идентификатор кодека : V_MPEG4/ISO/AVC
Продолжительность : 48 м.
Битрейт : 7000 Кбит/сек
Ширина : 1280 пикселей
Высота : 720 пикселей
Соотношение сторон : 16:9
Частота кадров : 25,000 кадров/сек
Цветовое пространство : YUV
Субдискретизация насыщенности : 4:2:0
Битовая глубина : 8 бит
Тип развёртки : Прогрессивная
Бит/(Пиксели*Кадры) : 0.304
Размер потока : 2,29 Гбайт (78%)
Библиотека кодирования : x264 core 116 r2074 2641b9e
Настройки программы : cabac=1 / ref=9 / deblock=1:-2:-2 / analyse=0x3:0x133 / me=umh / subme=10 / psy=1 / psy_rd=1.00:0.15 / mixed_ref=1 / me_range=32 / chroma_me=1 / trellis=2 / 8x8dct=1 / cqm=0 / deadzone=21,11 / fast_pskip=1 / chroma_qp_offset=-3 / threads=6 / sliced_threads=0 / nr=0 / decimate=1 / interlaced=0 / bluray_compat=0 / constrained_intra=0 / bframes=10 / b_pyramid=2 / b_adapt=2 / b_bias=0 / direct=3 / weightb=1 / open_gop=0 / weightp=2 / keyint=250 / keyint_min=25 / scenecut=40 / intra_refresh=0 / rc_lookahead=60 / rc=2pass / mbtree=1 / bitrate=7000 / ratetol=1.0 / qcomp=0.60 / qpmin=10 / qpmax=51 / qpstep=4 / cplxblur=20.0 / qblur=0.5 / ip_ratio=1.40 / aq=1:1.00
Язык : English

Аудио #1
Идентификатор : 2
Формат : AC-3
Формат/Информация : Audio Coding 3
Расширение режима : CM (complete main)
Идентификатор кодека : A_AC3
Продолжительность : 48 м.
Вид битрейта : Постоянный
Битрейт : 192 Кбит/сек
Каналы : 2 канала
Расположение каналов : Front: L R
Частота : 48,0 КГц
Битовая глубина : 16 бит
Метод сжатия : С потерями
Размер потока : 66,0 Мбайт (2%)
Заголовок : ПО
Язык : Russian

Аудио #2
Идентификатор : 3
Формат : DTS
Формат/Информация : Digital Theater Systems
Идентификатор кодека : A_DTS
Продолжительность : 48 м.
Вид битрейта : Постоянный
Битрейт : 1510 Кбит/сек
Каналы : 2 канала
Расположение каналов : Front: L R
Частота : 48,0 КГц
Битовая глубина : 24 бит
Метод сжатия : С потерями
Задержка видео : 11 мс.
Размер потока : 519 Мбайт (17%)
Заголовок : Английский
Язык : English

Меню
00:00:00.000 : en:00:00:00.000
00:09:21.000 : en:00:09:21.000
00:19:04.000 : en:00:19:04.000
00:30:10.000 : en:00:30:10.000
00:38:49.000 : en:00:38:49.000
00:47:33.000 : en:00:47:33.000
Скриншоты:

Описание: О развитие мозга от рождения до совершеннолетия.

Продолжительность: 00:50:26

Продолжительность: 00:48:05
Видеокодек: MPEG-4 AVC/H.264
Битрейт видео: ~ 6,900 Mbps
Размер кадра: 1280x720
Качество видео: BDRip [720p]
Аудио:
1. [русский] AC3, 2ch, 48kHz, 192 kbps
2. [english] DTS, 2ch, 48kHz, 1510 kbps
Общее
Уникальный идентификатор : 252587516762990328422404548567573504267 (0xBE069611F05A7C64B2472488BA74A10B)
Полное имя : F:\Films\Vnutri.chelovecheskogo.tela.(4.serii.iz.4).2011.x264.BDRip.720p\Vnutri.chelovecheskogo.tela.(3.seriya.iz.4).2011.x264.BDRip.720p.mkv
Формат : Matroska
Версия формата : Version 2
Размер файла : 3,03 Гбайт
Продолжительность : 50 м.
Общий поток : 8601 Кбит/сек
Название фильма : Gravitator (Руслан19780)
Дата кодирования : UTC 2012-06-08 10:26:15
Программа кодирования : mkvmerge v4.8.0 ('I Got The...') сборка от May 24 2011 03:12:58
Библиотека кодирования : libebml v1.2.0 + libmatroska v1.1.0

Видео
Идентификатор : 1
Формат : AVC
Формат/Информация : Advanced Video Codec
Профиль формата : High@L4.1
Параметр CABAC формата : Да
Параметр ReFrames формата : 9 кадров
Идентификатор кодека : V_MPEG4/ISO/AVC
Продолжительность : 50 м.
Битрейт : 6900 Кбит/сек
Ширина : 1280 пикселей
Высота : 720 пикселей
Соотношение сторон : 16:9
Частота кадров : 25,000 кадров/сек
Цветовое пространство : YUV
Субдискретизация насыщенности : 4:2:0
Битовая глубина : 8 бит
Тип развёртки : Прогрессивная
Бит/(Пиксели*Кадры) : 0.299
Размер потока : 2,37 Гбайт (78%)
Библиотека кодирования : x264 core 116 r2074 2641b9e
Настройки программы : cabac=1 / ref=9 / deblock=1:-2:-2 / analyse=0x3:0x133 / me=umh / subme=10 / psy=1 / psy_rd=1.00:0.15 / mixed_ref=1 / me_range=32 / chroma_me=1 / trellis=2 / 8x8dct=1 / cqm=0 / deadzone=21,11 / fast_pskip=1 / chroma_qp_offset=-3 / threads=6 / sliced_threads=0 / nr=0 / decimate=1 / interlaced=0 / bluray_compat=0 / constrained_intra=0 / bframes=10 / b_pyramid=2 / b_adapt=2 / b_bias=0 / direct=3 / weightb=1 / open_gop=0 / weightp=2 / keyint=250 / keyint_min=25 / scenecut=40 / intra_refresh=0 / rc_lookahead=60 / rc=2pass / mbtree=1 / bitrate=6900 / ratetol=1.0 / qcomp=0.60 / qpmin=10 / qpmax=51 / qpstep=4 / cplxblur=20.0 / qblur=0.5 / ip_ratio=1.40 / aq=1:1.00
Язык : English

Аудио #1
Идентификатор : 2
Формат : AC-3
Формат/Информация : Audio Coding 3
Расширение режима : CM (complete main)
Идентификатор кодека : A_AC3
Продолжительность : 50 м.
Вид битрейта : Постоянный
Битрейт : 192 Кбит/сек
Каналы : 2 канала
Расположение каналов : Front: L R
Частота : 48,0 КГц
Битовая глубина : 16 бит
Метод сжатия : С потерями
Размер потока : 69,3 Мбайт (2%)
Заголовок : ПО
Язык : Russian

Аудио #2
Идентификатор : 3
Формат : DTS
Формат/Информация : Digital Theater Systems
Идентификатор кодека : A_DTS
Продолжительность : 50 м.
Вид битрейта : Постоянный
Битрейт : 1510 Кбит/сек
Каналы : 2 канала
Расположение каналов : Front: L R
Частота : 48,0 КГц
Битовая глубина : 24 бит
Метод сжатия : С потерями
Задержка видео : 11 мс.
Размер потока : 545 Мбайт (18%)
Заголовок : Английский
Язык : English

Меню
00:00:00.000 : en:00:00:00.000
00:09:54.000 : en:00:09:54.000
00:19:15.000 : en:00:19:15.000
00:31:07.000 : en:00:31:07.000
00:38:12.000 : en:00:38:12.000
00:49:51.000 : en:00:49:51.000
Скриншоты:


Описание: Майкл Мосли рассказывает об эффективных способах защиты, которые использует наше тело против враждебного мира, где солнечный свет разрушает наше ДНК и каждый вдох содержит микробы, которые могут убить.

Продолжительность: 00:50:17

Продолжительность: 00:48:05
Видеокодек: MPEG-4 AVC/H.264
Битрейт видео: ~ 6,500 Mbps
Размер кадра: 1280x720
Качество видео: BDRip [720p]
Аудио:
1. [русский] AC3, 2ch, 48kHz, 192 kbps
2. [english] DTS, 2ch, 48kHz, 1510 kbps
Общее
Уникальный идентификатор : 215701462060844200319921774325342265140 (0xA2469729E6A8C3CFA5062497A7B5DF34)
Полное имя : F:\Films\Vnutri.chelovecheskogo.tela.(4.serii.iz.4).2011.x264.BDRip.720p\Vnutri.chelovecheskogo.tela.(4.seriya.iz.4).2011.x264.BDRip.720p.mkv
Формат : Matroska
Версия формата : Version 2
Размер файла : 2,88 Гбайт
Продолжительность : 50 м.
Общий поток : 8199 Кбит/сек
Название фильма : Gravitator (Руслан19780)
Дата кодирования : UTC 2012-06-08 10:33:37
Программа кодирования : mkvmerge v4.8.0 ('I Got The...') сборка от May 24 2011 03:12:58
Библиотека кодирования : libebml v1.2.0 + libmatroska v1.1.0

Видео
Идентификатор : 1
Формат : AVC
Формат/Информация : Advanced Video Codec
Профиль формата : High@L4.1
Параметр CABAC формата : Да
Параметр ReFrames формата : 9 кадров
Идентификатор кодека : V_MPEG4/ISO/AVC
Продолжительность : 50 м.
Битрейт : 6500 Кбит/сек
Ширина : 1280 пикселей
Высота : 720 пикселей
Соотношение сторон : 16:9
Частота кадров : 25,000 кадров/сек
Цветовое пространство : YUV
Субдискретизация насыщенности : 4:2:0
Битовая глубина : 8 бит
Тип развёртки : Прогрессивная
Бит/(Пиксели*Кадры) : 0.282
Размер потока : 2,22 Гбайт (77%)
Библиотека кодирования : x264 core 116 r2074 2641b9e
Настройки программы : cabac=1 / ref=9 / deblock=1:-2:-2 / analyse=0x3:0x133 / me=umh / subme=10 / psy=1 / psy_rd=1.00:0.15 / mixed_ref=1 / me_range=32 / chroma_me=1 / trellis=2 / 8x8dct=1 / cqm=0 / deadzone=21,11 / fast_pskip=1 / chroma_qp_offset=-3 / threads=6 / sliced_threads=0 / nr=0 / decimate=1 / interlaced=0 / bluray_compat=0 / constrained_intra=0 / bframes=9 / b_pyramid=2 / b_adapt=2 / b_bias=0 / direct=3 / weightb=1 / open_gop=0 / weightp=2 / keyint=250 / keyint_min=25 / scenecut=40 / intra_refresh=0 / rc_lookahead=60 / rc=2pass / mbtree=1 / bitrate=6500 / ratetol=1.0 / qcomp=0.60 / qpmin=10 / qpmax=51 / qpstep=4 / cplxblur=20.0 / qblur=0.5 / ip_ratio=1.40 / aq=1:1.00
Язык : English

Аудио #1
Идентификатор : 2
Формат : AC-3
Формат/Информация : Audio Coding 3
Расширение режима : CM (complete main)
Идентификатор кодека : A_AC3
Продолжительность : 50 м.
Вид битрейта : Постоянный
Битрейт : 192 Кбит/сек
Каналы : 2 канала
Расположение каналов : Front: L R
Частота : 48,0 КГц
Битовая глубина : 16 бит
Метод сжатия : С потерями
Размер потока : 69,1 Мбайт (2%)
Заголовок : ПО
Язык : Russian

Аудио #2
Идентификатор : 3
Формат : DTS
Формат/Информация : Digital Theater Systems
Идентификатор кодека : A_DTS
Продолжительность : 50 м.
Вид битрейта : Постоянный
Битрейт : 1510 Кбит/сек
Каналы : 2 канала
Расположение каналов : Front: L R
Частота : 48,0 КГц
Битовая глубина : 24 бит
Метод сжатия : С потерями
Задержка видео : 11 мс.
Размер потока : 543 Мбайт (18%)
Заголовок : Английский
Язык : English

Меню
00:00:00.000 : en:00:00:00.000
00:11:54.000 : en:00:11:54.000
00:19:38.000 : en:00:19:38.000
00:29:31.000 : en:00:29:31.000
00:40:08.000 : en:00:40:08.000
00:49:44.000 : en:00:49:44.000
Скриншоты:


Скриншоты:


Пожалуйста, не уходите с раздачи - помогите докачать другим. Если понравился релиз - жмите кнопку "Спасибо"! :приветствую:

Время раздачи: 24 / 7
[NNM-Club.ru]_Vnutri.chelovecheskogo.tela.(4.serii.iz.4).2011.x264.BDRip.720p.torrent
 Торрент: Золотая раздача  Зарегистрирован
 
Примагнититься

Зарегистрируйтесь и скачайте торрент!
 Зарегистрирован:   10 Июн 2012 19:37:55
 Размер:   11,9 GB  (
 Рейтинг:   4,7 (Голосов: 55)
 Поблагодарили:   175
 Проверка:   Оформление проверено модератором 10 Июн 2012 20:16:26
Как cкачать  ·  Как раздать  ·  Правильно оформить  ·  Поднять ратио!  

_________________
"Орать о величии и ненавидеть весь мир проще, чем строить дороги, города, поднимать промышленность и жить с этим миром в гармонии". © Андрей Макаревич
aubres
Стаж: 3 года 10 мес.
Сообщений: 31
Ratio: 5,062
Поблагодарили: 213
4.39%
Откуда: Одесса
ussr.gif
Сообщение 15 Июн 2012 22:53:07  Заголовок сообщения: Ответить с цитатой

:задумался: интересно

_________________
вечный студент.
ищу фильмы о китообразных, желательно в хорошем качестве.
Eldis​olven​te​
Стаж: 2 года 9 мес.
Сообщений: 2
Ratio: 1,692
5.41%
Сообщение 12 Мар 2013 23:48:58  Заголовок сообщения: Ответить с цитатой

Даже очень!
Показать сообщения:   
Начать новую тему   Ответить на тему    Торрент-трекер NNM-Club -> Зарубежные TV-бренды -> BBC Часовой пояс: GMT + 3
Страница 1 из 1