Классический форум-трекер
canvas not supported
Нас вместе: 4 088 984

Отбросы / Misfits (2009-2013) BDRip [H.264] [1-5 сезон. Кубик в кубе]


Страницы:   Пред.  1, 2, 3 
 
RSS
Начать новую тему   Ответить на тему    Торрент-трекер NNM-Club -> Зарубежные сериалы -> Отбросы / Misfits
Автор Сообщение
Libravir ®
Стаж: 7 лет 4 мес.
Сообщений: 35
Ratio: 28,913
Поблагодарили: 1197
100%
Отбросы / Misfits (2009-2013) BDRip-AVC [400p] [1-5 сезон. Кубик в кубе]
Год выпуска: 2009-2013
Жанр: Комедия, Фантастика

Перевод: Двухголосый закадровый, профессиональный
Озвучка / Автор перевода: Кубик в кубе
Вид субтитров: Вшитые отключаемые
Язык субтитров: Английские, русские. В четвертом сезоне только английские. Пятый сезон без субтитров.

Режиссер: Том Грин, Том Харпер, Чина Му-Ен
Актеры: Роберт Шиэн, Иван Реон, Лорен Соша, Антония Томас, Натан Стюарт-Джарретт, Алекс Рид, Рут Негга, Крэйг Паркинсон, Майкл Обиора, Анна Коваль, и др.



Описание фильма:
Пятерых правонарушителей, трудящихся на общественных работах, во время разразившегося шторма поражает молнией, после чего у них открываются суперсилы: трудная Келли (Лорен Сока) внезапно начала слышать мысли людей, пристыженный спортивный герой Кёртис (Нейтан Стюарт-Джарретт) обнаруживает, что у него есть способность повернуть время вспять, когда он о чём-либо сожалеет, тусовщица Алиша (Антония Томас) может вызывать у человека сексуальное безумство одним прикосновением. Крайне застенчивый Саймон (Иван Реон) может сделать себя невидимым. Самоуверенному Нейтану (Роберт Шиэн) до конца первого сезона не даёт покоя вопрос о том, какая способность досталась ему.
Вместо восхищения герои постепенно понимают, что все эти новые сверхспособности, которые им не особо-то были и нужны, не дар свыше, а тяжёлая ноша, приносящая душевную боль в их и так не очень успешные жизни.

Продолжительность: ~ 00:46:00 серия
Качество видео: BDRip-AVC

Видеокодек: MPEG-4 AVC/H.264
Битрейт видео: ~711 - 1009 Kbps
Размер кадра: 720x400
Аудио Rus: 48 kHz, 2.0 ch, AC3 192 kbps / Кубик в Кубе /
Аудио Eng: 48 kHz, 2.0 ch, AC3 192 kbps / Оригинал / В пятом сезоне: 48 kHz, 2.0 ch, AAC
Общее
Уникальный идентификатор : 229836016199464919897847884722448279795 (0xACE8CE7CA9FCFBF1866BDA2189C6A8F3)
Полное имя : E:\Downloads\Misfits\Misfits_s03e08.mkv
Формат : Matroska
Версия формата : Version 2
Размер файла : 362 Мбайт
Продолжительность : 46 м.
Общий поток : 1096 Кбит/сек
Дата кодирования : UTC 2012-05-23 15:53:19
Программа кодирования : mkvmerge v5.5.0 ('Healer') built on Apr 6 2012 21:43:24
Библиотека кодирования : libebml v1.2.3 + libmatroska v1.3.0

Видео
Идентификатор : 1
Формат : AVC
Формат/Информация : Advanced Video Codec
Профиль формата : High@L3.1
Параметр CABAC формата : Да
Параметр ReFrames формата : 16 кадров
Режим смешивания : Header stripping
Идентификатор кодека : V_MPEG4/ISO/AVC
Продолжительность : 46 м.
Битрейт : 711 Кбит/сек
Ширина : 720 пикселей
Высота : 400 пикселей
Соотношение сторон : 16:9
Частота кадров : 25,000 кадров/сек
Цветовое пространство : YUV
Субдискретизация насыщенности : 4:2:0
Битовая глубина : 8 бит
Тип развёртки : Прогрессивная
Бит/(Пиксели*Кадры) : 0.099
Размер потока : 228 Мбайт (63%)
Библиотека кодирования : x264 core 119 r2106 07efeb4
Настройки программы : cabac=1 / ref=16 / deblock=1:-1:-1 / analyse=0x3:0x133 / me=umh / subme=10 / psy=1 / psy_rd=1.00:0.10 / mixed_ref=1 / me_range=24 / chroma_me=1 / trellis=2 / 8x8dct=1 / cqm=0 / deadzone=21,11 / fast_pskip=1 / chroma_qp_offset=-3 / threads=6 / sliced_threads=0 / nr=0 / decimate=1 / interlaced=0 / bluray_compat=0 / constrained_intra=0 / bframes=8 / b_pyramid=2 / b_adapt=2 / b_bias=0 / direct=3 / weightb=1 / open_gop=0 / weightp=2 / keyint=250 / keyint_min=25 / scenecut=40 / intra_refresh=0 / rc_lookahead=60 / rc=2pass / mbtree=1 / bitrate=711 / ratetol=1.0 / qcomp=0.60 / qpmin=0 / qpmax=69 / qpstep=4 / cplxblur=20.0 / qblur=0.5 / ip_ratio=1.40 / aq=1:1.00
Default : Да
Forced : Нет

Аудио #1
Идентификатор : 2
Формат : AC-3
Формат/Информация : Audio Coding 3
Расширение режима : CM (complete main)
Параметр Endianness формата : Big
Режим смешивания : Header stripping
Идентификатор кодека : A_AC3
Продолжительность : 46 м.
Вид битрейта : Постоянный
Битрейт : 192 Кбит/сек
Каналы : 2 канала
Расположение каналов : Front: L R
Частота : 48,0 КГц
Битовая глубина : 16 бит
Метод сжатия : С потерями
Размер потока : 63,5 Мбайт (18%)
Язык : Russian
Default : Да
Forced : Нет

Аудио #2
Идентификатор : 3
Формат : AC-3
Формат/Информация : Audio Coding 3
Расширение режима : CM (complete main)
Параметр Endianness формата : Big
Режим смешивания : Header stripping
Идентификатор кодека : A_AC3
Продолжительность : 46 м.
Вид битрейта : Постоянный
Битрейт : 192 Кбит/сек
Каналы : 2 канала
Расположение каналов : Front: L R
Частота : 48,0 КГц
Битовая глубина : 16 бит
Метод сжатия : С потерями
Размер потока : 63,5 Мбайт (18%)
Язык : English
Default : Нет
Forced : Нет

Текст #1
Идентификатор : 4
Формат : UTF-8
Идентификатор кодека : S_TEXT/UTF8
Идентификатор кодека/Информация : UTF-8 Plain Text
Язык : English
Default : Нет
Forced : Нет

Текст #2
Идентификатор : 5
Формат : UTF-8
Идентификатор кодека : S_TEXT/UTF8
Идентификатор кодека/Информация : UTF-8 Plain Text
Язык : Russian
Default : Нет
Forced : Нет
Общее
Уникальный идентификатор : 179255705534494580289401816896926409101 (0x86DB64A224C0614C81A78A4BF670618D)
Полное имя : E:\Downloads\Misfits\Misfits_s01e04.mkv
Формат : Matroska
Версия формата : Version 2
Размер файла : 450 Мбайт
Продолжительность : 45 м.
Общий поток : 1394 Кбит/сек
Дата кодирования : UTC 2012-05-23 15:56:47
Программа кодирования : mkvmerge v5.5.0 ('Healer') built on Apr 6 2012 21:43:24
Библиотека кодирования : libebml v1.2.3 + libmatroska v1.3.0

Видео
Идентификатор : 1
Формат : AVC
Формат/Информация : Advanced Video Codec
Профиль формата : High@L3.1
Параметр CABAC формата : Да
Параметр ReFrames формата : 16 кадров
Режим смешивания : Header stripping
Идентификатор кодека : V_MPEG4/ISO/AVC
Продолжительность : 45 м.
Битрейт : 1009 Кбит/сек
Ширина : 720 пикселей
Высота : 400 пикселей
Соотношение сторон : 16:9
Частота кадров : 25,000 кадров/сек
Цветовое пространство : YUV
Субдискретизация насыщенности : 4:2:0
Битовая глубина : 8 бит
Тип развёртки : Прогрессивная
Бит/(Пиксели*Кадры) : 0.140
Размер потока : 317 Мбайт (70%)
Библиотека кодирования : x264 core 119 r2106 07efeb4
Настройки программы : cabac=1 / ref=16 / deblock=1:-1:-1 / analyse=0x3:0x133 / me=umh / subme=10 / psy=1 / psy_rd=1.00:0.10 / mixed_ref=1 / me_range=24 / chroma_me=1 / trellis=2 / 8x8dct=1 / cqm=0 / deadzone=21,11 / fast_pskip=1 / chroma_qp_offset=-3 / threads=6 / sliced_threads=0 / nr=0 / decimate=1 / interlaced=0 / bluray_compat=0 / constrained_intra=0 / bframes=8 / b_pyramid=2 / b_adapt=2 / b_bias=0 / direct=3 / weightb=1 / open_gop=0 / weightp=2 / keyint=250 / keyint_min=25 / scenecut=40 / intra_refresh=0 / rc_lookahead=60 / rc=2pass / mbtree=1 / bitrate=1009 / ratetol=1.0 / qcomp=0.60 / qpmin=0 / qpmax=69 / qpstep=4 / cplxblur=20.0 / qblur=0.5 / ip_ratio=1.40 / aq=1:1.00
Default : Да
Forced : Нет

Аудио #1
Идентификатор : 2
Формат : AC-3
Формат/Информация : Audio Coding 3
Расширение режима : CM (complete main)
Параметр Endianness формата : Big
Режим смешивания : Header stripping
Идентификатор кодека : A_AC3
Продолжительность : 45 м.
Вид битрейта : Постоянный
Битрейт : 192 Кбит/сек
Каналы : 2 канала
Расположение каналов : Front: L R
Частота : 48,0 КГц
Битовая глубина : 16 бит
Метод сжатия : С потерями
Размер потока : 62,0 Мбайт (14%)
Язык : Russian
Default : Да
Forced : Нет

Аудио #2
Идентификатор : 3
Формат : AC-3
Формат/Информация : Audio Coding 3
Расширение режима : CM (complete main)
Параметр Endianness формата : Big
Режим смешивания : Header stripping
Идентификатор кодека : A_AC3
Продолжительность : 45 м.
Вид битрейта : Постоянный
Битрейт : 192 Кбит/сек
Каналы : 2 канала
Расположение каналов : Front: L R
Частота : 48,0 КГц
Битовая глубина : 16 бит
Метод сжатия : С потерями
Размер потока : 62,0 Мбайт (14%)
Язык : English
Default : Нет
Forced : Нет

Текст #1
Идентификатор : 4
Формат : UTF-8
Идентификатор кодека : S_TEXT/UTF8
Идентификатор кодека/Информация : UTF-8 Plain Text
Язык : English
Default : Нет
Forced : Нет

Текст #2
Идентификатор : 5
Формат : UTF-8
Идентификатор кодека : S_TEXT/UTF8
Идентификатор кодека/Информация : UTF-8 Plain Text
Язык : Russian
Default : Нет
Forced : Нет

Меню
00:00:00.000 : en:00:00:00.000
00:08:31.560 : en:00:08:31.560
00:16:06.760 : en:00:16:06.760
00:25:22.280 : en:00:25:22.280
00:31:31.840 : en:00:31:31.840
00:39:30.960 : en:00:39:30.960
General
Unique ID : 238446579378582964128474335046227993283 (0xB3632407497E64B1A006B769797022C3)
Complete name : D:\Downloads\Misfits\Misfits_s05e04.mkv
Format : Matroska
Format version : Version 4 / Version 2
File size : 444 MiB
Duration : 48mn 28s
Overall bit rate : 1 280 Kbps
Encoded date : UTC 2013-12-25 09:31:24
Writing application : mkvmerge v6.6.0 ('The Edge Of The In Between') built on Dec 1 2013 17:55:00
Writing library : libebml v1.3.0 + libmatroska v1.4.1

Video
ID : 1
Format : AVC
Format/Info : Advanced Video Codec
Format profile : High@L3.1
Format settings, CABAC : Yes
Format settings, ReFrames : 16 frames
Codec ID : V_MPEG4/ISO/AVC
Duration : 48mn 28s
Nominal bit rate : 933 Kbps
Width : 720 pixels
Height : 400 pixels
Display aspect ratio : 16:9
Frame rate mode : Constant
Frame rate : 25.000 fps
Color space : YUV
Chroma subsampling : 4:2:0
Bit depth : 8 bits
Scan type : Progressive
Bits/(Pixel*Frame) : 0.130
Writing library : x264 core 130 r2273 b3065e6
Encoding settings : cabac=1 / ref=16 / deblock=1:0:0 / analyse=0x3:0x133 / me=tesa / subme=11 / psy=1 / psy_rd=1.00:0.10 / mixed_ref=1 / me_range=24 / chroma_me=1 / trellis=2 / 8x8dct=1 / cqm=0 / deadzone=21,11 / fast_pskip=0 / chroma_qp_offset=-3 / threads=6 / lookahead_threads=1 / sliced_threads=0 / nr=0 / decimate=1 / interlaced=0 / bluray_compat=0 / constrained_intra=0 / bframes=16 / b_pyramid=2 / b_adapt=2 / b_bias=0 / direct=3 / weightb=1 / open_gop=0 / weightp=2 / keyint=250 / keyint_min=25 / scenecut=40 / intra_refresh=0 / rc_lookahead=60 / rc=2pass / mbtree=1 / bitrate=933 / ratetol=1.0 / qcomp=0.60 / qpmin=0 / qpmax=69 / qpstep=4 / cplxblur=20.0 / qblur=0.5 / ip_ratio=1.40 / aq=1:1.00
Default : Yes
Forced : No

Audio #1
ID : 2
Format : AC-3
Format/Info : Audio Coding 3
Mode extension : CM (complete main)
Format settings, Endianness : Big
Codec ID : A_AC3
Duration : 48mn 28s
Bit rate mode : Constant
Bit rate : 192 Kbps
Channel count : 2 channels
Channel positions : Front: L R
Sampling rate : 48.0 KHz
Bit depth : 16 bits
Compression mode : Lossy
Stream size : 66.6 MiB (15%)
Title : DVO Кубик в Кубе
Language : Russian
Default : Yes
Forced : No

Audio #2
ID : 3
Format : AAC
Format/Info : Advanced Audio Codec
Format profile : LC
Codec ID : A_AAC
Duration : 48mn 28s
Channel count : 2 channels
Channel positions : Front: L R
Sampling rate : 48.0 KHz
Compression mode : Lossy
Language : English
Default : No
Forced : No
Время раздачи: Вечером в течение месяца.

Скриншоты:
[NNM-Club.me]_Misfits.torrent
 Торрент: Платиновая раздача  Зарегистрирован
 
Скачать


Примагнититься
 Зарегистрирован:   26 Дек 2013 18:51:29
 Размер:   15,3 GB  (
 Рейтинг:   4,9 (Голосов: 326)
 Поблагодарили:   1063
 Проверка:   Оформление проверено модератором 26 Дек 2013 20:40:21
Как cкачать  ·  Как раздать  ·  Правильно оформить  ·  Поднять ратио!  
heckzzz
Гость
Где можно скачать все саундтреки с сериала?
Sapsaner
Стаж: 5 лет 5 мес.
Сообщений: 358
Ratio: 65,654
Раздал: 21,01 TB
Поблагодарили: 1981
100%
Откуда: Almaty
kazakhstan.gif
Слышал интересный сериал , посмотрим , Спасибо за раздачу!
sandoc
Стаж: 7 лет 7 мес.
Сообщений: 3
Ratio: 3,196
100%
russia.gif
Дайте скорости пожалуйстааааа
daanka76
Стаж: 8 лет 5 мес.
Сообщений: 11
Ratio: 44,14
Раздал: 39,29 TB
100%
russia.gif
сериал действительно очень хорош . жаль, продолжения не будет. а нынешним сериальщикам есть у кого поучиться.
Beligel
Стаж: 10 лет 2 мес.
Сообщений: 6
Ratio: 7,748
74.07%
heckzzz писал(а): Перейти к сообщению
Где можно скачать все саундтреки с сериала?

Если будет интересно более 5 человекам, могу у себя поискать и выложить.
furs
Стаж: 8 лет 3 мес.
Сообщений: 20
Ratio: 14,28
1.96%
russia.gif
редкостное разложившийся помет морских птиц и летучих мышей, применяемый как азотное и фосфорное удобрение, сериал надо было назвать  
Beligel
Стаж: 10 лет 2 мес.
Сообщений: 6
Ratio: 7,748
74.07%
furs писал(а): Перейти к сообщению
редкостное разложившийся помет морских птиц и летучих мышей, применяемый как азотное и фосфорное удобрение, сериал надо было назвать  

Себя так назови, misfit.
uitarist2007
Стаж: 8 лет
Сообщений: 71
Ratio: 1,375
Поблагодарили: 1643
100%
Спасибо. Только одно НО. Почему по папкам не разложили?
Nefarik22
Стаж: 3 года 7 мес.
Сообщений: 129
Ratio: 0,204
20%
подскажите подобные сериалы!
Показать сообщения:   
Начать новую тему   Ответить на тему    Торрент-трекер NNM-Club -> Зарубежные сериалы -> Отбросы / Misfits Часовой пояс: GMT + 3
Страницы:   Пред.  1, 2, 3
Страница 3 из 3