Классический форум-трекер
canvas not supported
Нас вместе: 4 069 159

Последняя любовь на Земле / Perfect Sense (2011) [720p] BDRip


 
 
RSS
Начать новую тему   Ответить на тему    Торрент-трекер NNM-Club -> Зарубежное кино -> Зарубежные Фильмы (HD, UHD-LQ)
Автор Сообщение
Zov72 ®
Стаж: 9 лет 1 мес.
Сообщений: 4743
Ratio: 110,504
Поблагодарили: 594626
100%
Откуда: Вольный кабан
wild_hogs.gif
Последняя любовь на Земле / Perfect Sense (2011) BDRip
«Что останется, когда мир лишится всех чувств?»
Жанр: фантастика, драма, мелодрама
Перевод: Профессиональный многоголосый [лицензия]
Субтитры: Русские, английские
Вид субтитров: Вшитые отключаемые

Режиссер: Дэвид МакКензи
Актеры: Ева Грин, Юэн МакГрегор, Конни Нильсен, Стивен Диллэйн, Юэн Бремнер, Дэнис Лоусон, Аластер Маккензи, Лиз Стрэйндж, Кэролайн Патерсон, Джеймс Уотсон

Премьера (мир): 24 января 2011
Премьера (РФ): 24 ноября 2011, «Вольга»
Релиз на DVD: 15 декабря 2011, «Вольга»

Описание:
Земля столкнулась с небывалым бедствием. В разных странах, на каждом континенте люди в самом буквальном смысле лишаются чувств — каждого из пяти, одного за другим… Майкл и Сьюзан считают свою связь мимолетной, но когда становится ясно, что мир неумолимо приближается к концу, герои понимают — им уже не прожить друг без друга. Но что останется, когда пропадут последние чувства?



Продолжительность: 01:32:32
Качество видео: BDRip

Контейнер: MKV
Видеокодек: MPEG-4 AVC/H.264
Битрейт видео: 5900 kbps
Размер кадра: 1280x544
Аудио#1: Russian: 48 kHz, DTS, 3/2 (L,C,R,l,r) + LFE ch, ~1510 kbps avg |Многоголосый закадровый, R5|
Аудио#2: English: 48 kHz, DTS, 3/2 (L,C,R,l,r) + LFE ch, ~1510 kbps avg |Original|
Код: выделить все

General
Unique ID                                : 182955386099203002553597974652568430718 (0x89A3ECF7E4766C94B648FB46764B687E)
Complete name                            : C:\Users\Сергей\Downloads\Perfect.Sense.2011.720p.BluRay.Rus.Eng.mkv
Format                                   : Matroska
Format version                           : Version 2
File size                                : 5.76 GiB
Duration                                 : 1h 32mn
Overall bit rate                         : 8 913 Kbps
Encoded date                             : UTC 2012-05-01 05:26:09
Writing application                      : mkvmerge v5.0.1 ('Es ist Sommer') built on Oct 24 2011 19:45:06
Writing library                          : libebml v1.2.2 + libmatroska v1.3.0

Video
ID                                       : 1
Format                                   : AVC
Format/Info                              : Advanced Video Codec
Format profile                           : High@L4.1
Format settings, CABAC                   : Yes
Format settings, ReFrames                : 11 frames
Codec ID                                 : V_MPEG4/ISO/AVC
Duration                                 : 1h 32mn
Bit rate                                 : 5 900 Kbps
Width                                    : 1 280 pixels
Height                                   : 544 pixels
Display aspect ratio                     : 2.35:1
Frame rate                               : 23.976 fps
Color space                              : YUV
Chroma subsampling                       : 4:2:0
Bit depth                                : 8 bits
Scan type                                : Progressive
Bits/(Pixel*Frame)                       : 0.353
Stream size                              : 3.69 GiB (64%)
Writing library                          : x264 core 119 r2106 07efeb4
Encoding settings                        : cabac=1 / ref=11 / deblock=1:-2:-2 / analyse=0x3:0x113 / me=umh / subme=10 / psy=1 / psy_rd=1.00:0.00 / mixed_ref=1 / me_range=48 / chroma_me=1 / trellis=2 / 8x8dct=1 / cqm=0 / deadzone=21,11 / fast_pskip=0 / chroma_qp_offset=-2 / threads=6 / sliced_threads=0 / nr=0 / decimate=1 / interlaced=0 / bluray_compat=0 / constrained_intra=0 / bframes=8 / b_pyramid=2 / b_adapt=2 / b_bias=0 / direct=3 / weightb=1 / open_gop=0 / weightp=2 / keyint=240 / keyint_min=24 / scenecut=40 / intra_refresh=0 / rc_lookahead=80 / rc=2pass / mbtree=1 / bitrate=5900 / ratetol=1.0 / qcomp=0.60 / qpmin=0 / qpmax=69 / qpstep=4 / cplxblur=20.0 / qblur=0.5 / ip_ratio=1.40 / aq=1:1.00
Language                                 : English
Default                                  : Yes
Forced                                   : No

Audio #1
ID                                       : 2
Format                                   : DTS
Format/Info                              : Digital Theater Systems
Codec ID                                 : A_DTS
Duration                                 : 1h 32mn
Bit rate mode                            : Constant
Bit rate                                 : 1 510 Kbps
Channel(s)                               : 6 channels
Channel positions                        : Front: L C R, Side: L R, LFE
Sampling rate                            : 48.0 KHz
Bit depth                                : 16 bits
Compression mode                         : Lossy
Stream size                              : 999 MiB (17%)
Title                                    :  R5
Language                                 : Russian
Default                                  : Yes
Forced                                   : No

Audio #2
ID                                       : 3
Format                                   : DTS
Format/Info                              : Digital Theater Systems
Codec ID                                 : A_DTS
Duration                                 : 1h 32mn
Bit rate mode                            : Constant
Bit rate                                 : 1 510 Kbps
Channel(s)                               : 6 channels
Channel positions                        : Front: L C R, Side: L R, LFE
Sampling rate                            : 48.0 KHz
Bit depth                                : 16 bits
Compression mode                         : Lossy
Stream size                              : 999 MiB (17%)
Title                                    : Original
Language                                 : English
Default                                  : No
Forced                                   : No

Text #1
ID                                       : 4
Format                                   : UTF-8
Codec ID                                 : S_TEXT/UTF8
Codec ID/Info                            : UTF-8 Plain Text
Title                                    : Full
Language                                 : Russian
Default                                  : Yes
Forced                                   : No

Text #2
ID                                       : 5
Format                                   : UTF-8
Codec ID                                 : S_TEXT/UTF8
Codec ID/Info                            : UTF-8 Plain Text
Title                                    : Full
Language                                 : English
Default                                  : No
Forced                                   : No



Скриншоты из фильма:



Релиз от:

Приятного просмотра
и не забываем говорить СПАСИБО...

Время раздачи: 24/7
до 15 скачавших..
[NNM-Club.me]_Perfect.Sense.2011.720p.BluRay.Rus.Eng.mkv.torrent
 Торрент: Платиновая раздача  Зарегистрирован
 
Скачать


Примагнититься
 Зарегистрирован:   30 Сен 2018 16:58:53
 Размер:   5,76 GB  (
 Рейтинг:   4,9 (Голосов: 56)
 Поблагодарили:   311
 Проверка:   Оформление проверено модератором 30 Сен 2018 17:12:19
Как cкачать  ·  Как раздать  ·  Правильно оформить  ·  Поднять ратио!  

_________________
Мне чужого не надо….Но свое я заберу, чье бы оно ни было!!!
starodum
Стаж: 8 лет 3 мес.
Сообщений: 12
Ratio: 4,702
24.68%
Замечательный фильм. Спасибо автору релиза. :поклоняется:
Post_man
Стаж: 7 лет 2 мес.
Сообщений: 39
Ratio: 0,99
100%
Депрессивный фильм, но заставляет задуматься о ценностях. Надеюсь будет второй фильм, где все будет хорошо
SRGA
Стаж: 7 лет 10 мес.
Сообщений: 9
Ratio: 1,799
0.64%
croatia.gif
Спасибо! Отличный фильм, да в отличном качестве!)))
f0th
Стаж: 7 лет 10 мес.
Сообщений: 70
Ratio: 26,134
100%
спасибо! а 1080p ожидается?
Показать сообщения:   
Начать новую тему   Ответить на тему    Торрент-трекер NNM-Club -> Зарубежное кино -> Зарубежные Фильмы (HD, UHD-LQ) Часовой пояс: GMT + 3
Страница 1 из 1