Интеллигентный торрент-трекер
Нас вместе: 3 805 309 | Новости торрент-трекера | Как тут скачивать? | Как раздавать торренты? | Правила оформления

Скачать бесплатно торрент Red Hot Chili Peppers – Californication (1999) [FLAC 2.0 24/192 | image (VinylRip)] <Funk Rock/Alternative Rock> torrent download


 
 
RSS
Начать новую тему   Ответить на тему    Торрент-трекер NNM-Club -> HD Audio и Многоканальная Музыка -> Vinyl-Rip и Hand-Made
Предыдущая тема :: Следующая тема 
Автор Сообщение
PhantomAVG ®
Стаж: 3 года 10 мес.
Сообщений: 1489
Ratio: 6,898
Раздал: 2,746 TB
Поблагодарили: 12785
100%
Откуда: страна пиратия
pirates.png
Сообщение 15 Апр 2012 15:00:23  Заголовок сообщения: Red Hot Chili Peppers – Californication (1999) [FLAC 2.0 24/192 | image (VinylRip)] <Funk Rock/Alternative Rock> Ответить с цитатой

Red Hot Chili Peppers – Californication (1999)
Год: 1999
Жанр: Funk Rock/Alternative Rock
Страна-производитель: Germany

Автор оцифровки: doctorrs
Продолжительность: 00:56:28
Кодек: FLAC
Битрейт: Lossless
Аудио: 24 бит / 96 кГц
Тип рипа: image+.cue

Трек лист:
01. Around The World
02. Parallel Universe
03. Scar Tissue
04. Otherside
05. Get On Top
06. Californication
07. Easily
08. Porcelain
09. Emit Remmus
10. I Like Dirt
11. This Velvet Glove
12. Savior
13. Purple Stain
14. Right On Time
15. Road Trippin
Класс состояния винила: Ex
Устройство воспроизведения: Dual CS 741Q
Phono cartridge: Shure M97XE
Фонокорректор: NAD PP2
АЦП: E-MU Tracker Pre
Программа-оцифровщик: WaveLab 6.0
Формат записи (Bit/kHz): 32/192
Формат раздачи (Bit/kHz): 24/192
Обработка: 1. Ручное удаление крупных щелчков
Сжатие: (Flack 1.7.1)
Код:
Общее
Полное имя                               : D:\1999 Red Hot Chilli Peppers - Californication (24-192 vinyl) [nnm-club.me]\Red Hot Chili Peppers_LP_1.flac
Формат                                   : FLAC
Формат/Информация                        : Free Lossless Audio Codec
Размер файла                             : 1,07 Гбайт
Продолжительность                        : 28 м.
Режим общего битрейта                    : Переменный
Общий поток                              : 5312 Кбит/сек
Альбом                                   : [Red Hot Chili Peppers] Californication
Трек                                     : LP 1
Исполнитель                              : Red Hot Chili Peppers
Примечание                               : Encoded by FLAC v1.1.4a with FLAC Frontend v1.7.1

Аудио
Формат                                   : FLAC
Формат/Информация                        : Free Lossless Audio Codec
Продолжительность                        : 28 м.
Вид битрейта                             : Переменный
Битрейт                                  : 5312 Кбит/сек
Каналы                                   : 2 канала
Частота                                  : 192 КГц
Битовая глубина                          : 24 бит
Размер потока                            : 1,07 Гбайт (100%)
Библиотека кодирования                   : libFLAC 1.2.1 (UTC 2007-09-17)

Код:
Общее
Полное имя                               : D:\1999 Red Hot Chilli Peppers - Californication (24-192 vinyl) [nnm-club.me]\Red Hot Chili Peppers_LP_2.flac
Формат                                   : FLAC
Формат/Информация                        : Free Lossless Audio Codec
Размер файла                             : 1,01 Гбайт
Продолжительность                        : 27 м.
Режим общего битрейта                    : Переменный
Общий поток                              : 5238 Кбит/сек
Альбом                                   : [Red Hot Chili Peppers] Californication
Трек                                     : LP 2
Исполнитель                              : Red Hot Chili Peppers
Примечание                               : Encoded by FLAC v1.1.4a with FLAC Frontend v1.7.1

Аудио
Формат                                   : FLAC
Формат/Информация                        : Free Lossless Audio Codec
Продолжительность                        : 27 м.
Вид битрейта                             : Переменный
Битрейт                                  : 5237 Кбит/сек
Каналы                                   : 2 канала
Частота                                  : 192 КГц
Битовая глубина                          : 24 бит
Размер потока                            : 1,01 Гбайт (100%)
Библиотека кодирования                   : libFLAC 1.2.1 (UTC 2007-09-17)

Код:
PERFORMER "Red Hot Chili Peppers"
TITLE "Californication"
REM DATE 1999
FILE "Red Hot Chili Peppers_LP_1.flac" WAVE
TRACK 01 AUDIO
TITLE "Around The World"
PERFORMER "Red Hot Chili Peppers"
INDEX 01 00:00:00
TRACK 02 AUDIO
TITLE "Parallel Universe"
PERFORMER "Red Hot Chili Peppers"
INDEX 01 04:00:50
TRACK 03 AUDIO
TITLE "Scar Tissue"
PERFORMER "Red Hot Chili Peppers"
INDEX 01 08:30:50
TRACK 04 AUDIO
TITLE "Otherside"
PERFORMER "Red Hot Chili Peppers"
INDEX 01 12:08:00
TRACK 05 AUDIO
TITLE "Get On Top"
PERFORMER "Red Hot Chili Peppers"
INDEX 01 16:24:00
TRACK 06 AUDIO
TITLE "Californication"
PERFORMER "Red Hot Chili Peppers"
INDEX 01 19:43:00
TRACK 07 AUDIO
TITLE "Easily"
PERFORMER "Red Hot Chili Peppers"
INDEX 01 25:03:50
FILE "Red Hot Chili Peppers_LP_2.flac" WAVE
TRACK 08 AUDIO
TITLE "Porcelain"
PERFORMER "Red Hot Chili Peppers"
INDEX 01 00:00:00
TRACK 09 AUDIO
TITLE "Emit Remmus"
PERFORMER "Red Hot Chili Peppers"
INDEX 01 02:45:50
TRACK 10 AUDIO
TITLE "I Like Dirt"
PERFORMER "Red Hot Chili Peppers"
INDEX 01 06:46:30
TRACK 11 AUDIO
TITLE "This Velvet Glove"
PERFORMER "Red Hot Chili Peppers"
INDEX 01 09:24:20
TRACK 12 AUDIO
TITLE "Savior"
PERFORMER "Red Hot Chili Peppers"
INDEX 01 13:08:50
TRACK 13 AUDIO
TITLE "Purple Stain"
PERFORMER "Red Hot Chili Peppers"
INDEX 01 18:01:00
TRACK 14 AUDIO
TITLE "Right On Time"
PERFORMER "Red Hot Chili Peppers"
INDEX 01 22:14:00
TRACK 15 AUDIO
TITLE "Road Trippin"
PERFORMER "Red Hot Chili Peppers"
INDEX 01 24:07:00



Время раздачи: Круглосуточно
1999 Red Hot Chilli Peppers - Californication (24-192 vinyl) [nnm-club.ru].torrent
 Торрент: Золотая раздача  Зарегистрирован
 
Примагнититься

Зарегистрируйтесь и скачайте торрент!
 Зарегистрирован:   15 Апр 2012 15:00:23
 Размер:   2,11 GB  (
 Рейтинг:   4,8 (Голосов: 21)
 Поблагодарили:   76
 Проверка:   Оформление проверено модератором 16 Апр 2012 23:05:22
Как cкачать  ·  Как раздать  ·  Правильно оформить  ·  Поднять ратио!  
Демот​ивато​р​
Стаж: 4 года 2 мес.
Сообщений: 2
Ratio: 2,312
0.5%
Сообщение 18 Апр 2012 20:26:45  Заголовок сообщения: Ответить с цитатой

Круть!
leugene
 
Стаж: 3 года 10 мес.
Сообщений: 660
Ratio: 13,103
Раздал: 25,31 TB
Поблагодарили: 5196
73.88%
krevedko.png
Сообщение 09 Июн 2012 23:10:24  Заголовок сообщения: Ответить с цитатой

Супер. Вот только пытался конвертнуть в мп3, а easy-cd-da extractor говорит, что какието проблеммы с cue, и не хочет по трекам бить.
clear100
Стаж: 3 года 7 мес.
Сообщений: 8
Ratio: 4,77
1.38%
russia.gif
Сообщение 23 Фев 2014 21:09:33  Заголовок сообщения: Ответить с цитатой

Это качество лучше чем лицензионный СD?
Показать сообщения:   
Начать новую тему   Ответить на тему    Торрент-трекер NNM-Club -> HD Audio и Многоканальная Музыка -> Vinyl-Rip и Hand-Made Часовой пояс: GMT + 4
Страница 1 из 1