Интеллигентный торрент-трекер
Нас вместе: 3 847 587 | Новости торрент-трекера | Как тут скачивать? | Как раздавать торренты? | Правила оформления

Футбол. Чемпионат России 2011-12. 6-й тур. "Зенит" - "Крылья Советов" (2011) SATRip


 
 
RSS
Начать новую тему   Ответить на тему    Торрент-трекер NNM-Club -> Архив торрентов -> Архив Документалистики и TV
Предыдущая тема :: Следующая тема  
Автор Сообщение
77777​77ole​g7777​777​ ®


Стаж: 3 года 5 месяцев
Сообщений: 39
Ratio: 2,944
Поблагодарили: 65
48.95%
Откуда: Череповец
russia.gif

Сообщение 11 Мар 2012 21:30:28  Заголовок сообщения: Футбол. Чемпионат России 2011-12. 6-й тур. "Зенит" - "Крылья Советов" (2011) SATRip Ответить с цитатой

Футбол. Чемпионат России 2011-12. 6-й тур. "Зенит" - "Крылья Советов" (2011) SATRip
Название: Футбол. Чемпионат России 2011-12. 6-й тур. "Зенит" - "Крылья Советов"
Режиссер / Телекомпания: НТВ+
Год выпуска: 2011
Жанр: Спорт

Описание:
Матч 6-го тура чемпионата России сезона 2011-12 между командами Зенит и Крылья Советов.

Комментатор: Геннадий Орлов, Денис Казанский

Продолжительность: 02:02:12 (01:00:55 + 01:01:17)

Видеокодек: Xvid
Битрейт видео: ~1602 kbps
Размер кадра: 704x400
Качество видео: SATRip
Аудиокодек: MP3
Битрейт аудио: 128 kbps

Скриншоты:
Формат : AVI
Формат/Информация : Audio Video Interleave
Размер файла : 756 Мбайт
Продолжительность : 1 ч. 0 м.
Общий поток : 1736 Кбит/сек
Библиотека кодирования : TMPGEnc 4.0 XPress Version. 4.7.7.307

Видео
Идентификатор : 0
Формат : MPEG-4 Visual
Профиль формата : Simple@L3
Параметр BVOP формата : Нет
Параметр QPel формата : Нет
Параметр GMC формата : Без точки перехода
Параметр матрицы формата : Default (H.263)
Идентификатор кодека : XVID
Идентификатор кодека/Подсказка : XviD
Продолжительность : 1 ч. 0 м.
Битрейт : 1600 Кбит/сек
Ширина : 704 пикселя
Высота : 400 пикселей
Соотношение сторон : 16:9
Частота кадров : 25,000 кадров/сек
Цветовое пространство : YUV
Субдискретизация насыщенности : 4:2:0
Битовая глубина : 8 бит
Тип развёртки : Прогрессивная
Метод сжатия : С потерями
Бит/(Пиксели*Кадры) : 0.227
Размер потока : 697 Мбайт (92%)
Библиотека кодирования : XviD 1.3.0.dev55

Аудио
Идентификатор : 1
Формат : MPEG Audio
Версия формата : Version 1
Профиль формата : Layer 3
Режим : Joint stereo
Расширение режима : MS Stereo
Идентификатор кодека : 55
Идентификатор кодека/Подсказка : MP3
Продолжительность : 1 ч. 0 м.
Вид битрейта : Постоянный
Битрейт : 128 Кбит/сек
Каналы : 2 канала
Частота : 48,0 КГц
Метод сжатия : С потерями
Размер потока : 55,8 Мбайт (7%)
Выравнивание : Соединение по промежуткам
Продолжительность промежутка : 250 мс. (6,25 видеокадров)
Время предзагрузки промежутка : 192 мс.
Формат : AVI
Формат/Информация : Audio Video Interleave
Размер файла : 760 Мбайт
Продолжительность : 1 ч. 1 м.
Общий поток : 1734 Кбит/сек
Библиотека кодирования : TMPGEnc 4.0 XPress Version. 4.7.7.307

Видео
Идентификатор : 0
Формат : MPEG-4 Visual
Профиль формата : Simple@L3
Параметр BVOP формата : Нет
Параметр QPel формата : Нет
Параметр GMC формата : Без точки перехода
Параметр матрицы формата : Default (H.263)
Идентификатор кодека : XVID
Идентификатор кодека/Подсказка : XviD
Продолжительность : 1 ч. 1 м.
Битрейт : 1599 Кбит/сек
Ширина : 704 пикселя
Высота : 400 пикселей
Соотношение сторон : 16:9
Частота кадров : 25,000 кадров/сек
Цветовое пространство : YUV
Субдискретизация насыщенности : 4:2:0
Битовая глубина : 8 бит
Тип развёртки : Прогрессивная
Метод сжатия : С потерями
Бит/(Пиксели*Кадры) : 0.227
Размер потока : 701 Мбайт (92%)
Библиотека кодирования : XviD 1.3.0.dev55

Аудио
Идентификатор : 1
Формат : MPEG Audio
Версия формата : Version 1
Профиль формата : Layer 3
Режим : Joint stereo
Расширение режима : MS Stereo
Идентификатор кодека : 55
Идентификатор кодека/Подсказка : MP3
Продолжительность : 1 ч. 1 м.
Вид битрейта : Постоянный
Битрейт : 128 Кбит/сек
Каналы : 2 канала
Частота : 48,0 КГц
Метод сжатия : С потерями
Размер потока : 56,1 Мбайт (7%)
Выравнивание : Соединение по промежуткам
Продолжительность промежутка : 250 мс. (6,25 видеокадров)
Время предзагрузки промежутка : 192 мс.
Время раздачи: с 7:00 до 23:00
[NNM-Club.ru]_6y tur. Zenit Kryil'ya sovetov.torrent
 Торрент: Золотая раздача  Зарегистрирован
 
Примагнититься

Зарегистрируйтесь и скачайте торрент!
 Зарегистрирован:   11 Мар 2012 21:30:28
 Размер:   1,48 GB  (
 Рейтинг:    (Голосов: 4)
 Поблагодарили:   3
 Проверка:   Оформление проверено модератором 13 Мар 2012 23:38:11
Как cкачать  ·  Как раздать  ·  Правильно оформить  ·  Поднять ратио!  


Последний раз редактировалось: 7777777oleg7777777 (13 Мар 2012 11:00:24), всего редактировалось 2 раз(а)
Сообщение 27 Июн 2012 19:11:18

Топик был перенесен из форума Футбол в форум Архив Документалистики и TV


Microsoft SQL
Показать сообщения:   
Начать новую тему   Ответить на тему    Торрент-трекер NNM-Club -> Архив торрентов -> Архив Документалистики и TV Часовой пояс: GMT + 3
Страница 1 из 1