Интеллигентный торрент-трекер
Нас вместе: 3 746 433 | Новости торрент-трекера | Как тут скачивать? | Как раздавать торренты? | Правила оформления

Шерлок Холмс: Полная коллекция / Sherlock Holmes: The Complete Collection (1939-1946) BDRip


Страницы:  1, 2  След. 
 
RSS
Начать новую тему   Ответить на тему    Торрент-трекер NNM-Club -> Классика кино и Фильмы до 90-х -> Зарубежная Классика (HD*Rip/LQ, DVDRip, SATRip, VHSRip)
Предыдущая тема :: Следующая тема  
Автор Сообщение
ural28 ®


Стаж: 4 года 7 месяцев
Сообщений: 156
Ratio: 3730,744
Поблагодарили: 8394
100%
honduras.gif

Сообщение 09 Мар 2012 21:36:42  Заголовок сообщения: Шерлок Холмс: Полная коллекция / Sherlock Holmes: The Complete Collection (1939-1946) BDRip Ответить с цитатой

Шерлок Холмс: Полная коллекция / Sherlock Holmes: The Complete Collection (1939-1946) BDRip
Описание:
Полная коллекция фильмов о Шерлоке Холмсе и его верном друге и помощнике Докторе Ватсоне в экранизации Голливуда.

Список фильмов:

• Шерлок Холмс: Собака Баскервилей / Sherlock Holmes: The Hound of the Baskervilles (1939)
• Приключения Шерлока Холмса / The Adventures of Sherlock Holmes (1939)
• Шерлок Холмс: Шерлок Холмс и голос ужаса / Sherlock Holmes and the Voice of Terror (1942)
• Шерлок Холмс и секретное оружие / Sherlock Holmes and the Secret Weapon (1943)
• Шерлок Холмс в Вашингтоне / Sherlock Holmes in Washington (1943)
• Шерлок Холмс перед лицом смерти / Sherlock Holmes Faces Death (1943)
• Паучиха / The Spider Woman (1944)
• Шерлок Холмс: Багровый коготь / The Scarlet Claw (1944)
• Шерлок Холмс: Жемчужина смерти / The Pearl of Death (1944)
• Шерлок Холмс: Замок ужаса / The House of Fear (1945)
• Шерлок Холмс: Женщина в зеленом / The Woman in Green (1945)
• Погоня в Алжире / Pursuit to Algiers (1945)
• Шерлок Холмс: Ночной террор / Terror by Night (1946)
• Шерлок Холмс: Прелюдия к убийству / Dressed to Kill (1946)

(Подробное описание фильмов в теме)

Жанр: триллер, криминал, детектив

Режиссер: Сидней Лэнфилд, Альфред Л. Веркер, Джон Роулинз, Рой Уильям Нилл

Актеры:
Бэзил Рэтбоун / Basil Rathbone – в роли Шерлока Холмса
Найджел Брюс / Nigel Bruce – в роли доктора Ватсона

Перевод: профессиональный многоголосый закадровый
Автор перевода: DVD-Classic
Автор рипа: ural28

Продолжительность: 14 x ~ 01:08:10
Общaя продолжительность: ~ 15:54:21

Видеокодек: DivX
Битрейт видео: ~2809 kbps
Размер кадра: 640x464
Качество видео: BDRip
Аудиокодек: MP3
Битрейт аудио: 2 ch., ~128.00 kbps
Источник рипа – BDRemux 1080p группы hdclub
Автор рипа: ural28
• названия фильмов приведены согласно сайта КиНОПОиСК
• фильмы расположены в последовательности мировых премьер, согласно сайта КиНОПОиСК


Шерлок Холмс: Собака Баскервилей / Sherlock Holmes: The Hound of the Baskervilles (1939) BDRip
Русское название: Шерлок Холмс: Собака Баскервилей
Оригинальное название: Sherlock Holmes: The Hound of the Baskervilles
Год выпуска: 1939
Страна: США
Жанр: ужасы, триллер, драма, криминал, детектив
Кинокомпания: Twentieth Century Fox Film Corporation

Описание фильма: После смерти своего дяди, сэр Генри Баскервиль возвращается из-за границы и открывает наследственный дом на пустынных торфяниках Девоншира. Холмс раскрывает заговор убийства сэра Генри ужасной обученной собакой…

Режиссер: Сидней Лэнфилд
Актеры: Ричард Грин, Бэзил Рэтбоун, Уэнди Бэрри, Найджел Брюс, Лайонел Этуилл, Джон Кэррадайн, Барлоу Борланд, Берил Мерсер, Мортон Лоури, Эйли Мэлион, Ральф Форбс, Лайонел Пейп, Найджел Де Брулир, Мэри Гордон, Йен МакЛарен, Леонард Кэри, Кеннет Хантер, Веси О’Даворен, Рита Пейдж, Джон Грэхэм Спейси, Рут Терри, Дэвид Тарсби, Питер Уиллз, Мэри Янг…

Продолжительность: 01:19:44
Перевод: Профессиональный многоголосый закадровый
Субтитры: отсутствуют



Дата мировой премьеры: 24 марта 1939

Видеокодек: DivX
Битрейт видео: ~2467 kbps
Размер кадра: 640x464
Качество видео: BDRip
Аудиокодек: AC3
Битрейт аудио: 2 ch, ~128.00 kbps
General
Complete name : sh.01.shErlOck.hOlmEs.thE.hOund.oF.thE.bAskErvillEs.1939.BDRip.avi
Format : AVI
Format/Info : Audio Video Interleave
File size : 1.45 GiB
Duration : 1h 19mn
Overall bit rate : 2 604 Kbps
Writing application : FairUse Wizard -
Writing library : The best and REALLY easy backup tool

Video
ID : 0
Format : MPEG-4 Visual
Format settings, BVOP : 1
Format settings, QPel : No
Format settings, GMC : No warppoints
Format settings, Matrix : Default (MPEG)
Muxing mode : Packed bitstream
Codec ID : DX50
Codec ID/Hint : DivX 5
Duration : 1h 19mn
Bit rate : 2 467 Kbps
Width : 640 pixels
Height : 464 pixels
Display aspect ratio : 1.379
Frame rate : 23.976 fps
Color space : YUV
Chroma subsampling : 4:2:0
Bit depth : 8 bits
Scan type : Progressive
Compression mode : Lossy
Bits/(Pixel*Frame) : 0.347
Stream size : 1.37 GiB (95%)
Writing library : DivX 5.2.1 (DrDivX 106) (UTC 2004-09-08)

Audio
ID : 1
Format : MPEG Audio
Format version : Version 1
Format profile : Layer 3
Mode : Joint stereo
Mode extension : MS Stereo
Codec ID : 55
Codec ID/Hint : MP3
Duration : 1h 19mn
Bit rate mode : Constant
Bit rate : 128 Kbps
Channel(s) : 2 channels
Sampling rate : 48.0 KHz
Compression mode : Lossy
Stream size : 73.0 MiB (5%)
Alignment : Aligned on interleaves
Interleave, duration : 42 ms (1.00 video frame)
Interleave, preload duration : 504 ms
Writing library : LAME3.97
Encoding settings : -m j -V 4 -q 2 -lowpass 17 -b 128
Скриншоты:



Рецензия с сайта КиНОПОиСК от ahairn :
Собака без огонька
В 1939 году компания «20 век Фокс» решила в очередной раз экранизировать едва ли не самый известный детектив в мире — «Собаку Баскервилей». Вышел он чисто голливудским и по атмосфере, и по сделанным купюрам (строго соответствующим моральному кодексу «Золотого Голливуда»). Актёры же, исполнившие роли Холмса и Ватсона, оказались удачной парой, и позже компания «Юниверсал» сняла с их участием ироничный цикл осовремененных фильмов на оригинальные сценарии., безусловно вошедший в классику «холмсианы».

«Собака Баскервилей», увы, хоть и представляет интерес как стартовая точка, но является одним из самых слабых фильмов сериала. Тем не менее, это единственный фильм цикла, в основном следующий сюжету Конан Дойла.

Сюжет же, думаю, известен практически всем — на девонширских болотах находят труп местного помещика сэра Чарльза Баскервиля, в роду которого издревле хранится легенда о чудовищной собаке, преследующей представителей семьи. Обеспокоенный за единственного наследника местный врач обращается к знаменитому сыщику Шерлоку Холмсу. Отрядив на место доктора Ватсона, Холмс сумел доказать вполне земную подоплёку убийства сэра Чарльза и изобличить преступника.

В начале строго следуя книге, с момента приезда в Баскервиль-холл сэра Генри и Ватсона сюжет, однако, принимается нестись галопом, будучи втиснут в часовой формат. Особенно до вторичного появления Холмса, который зрительское внимание в основном и держит. В результате ряд ключей, добросовестно экранизированных в начале книги, остался без объяснений, а часть персонажей, как Лора Лайонс, исчезли или утратили в подозрительности. Тем не менее, в конце у Холмса нашлось время, чтобы, уже установив преступника, собрать всех в Баскервиль-холле для финальной речи детектива с изобличением. Принятой в детективе 1930х годов.

Сам Холмс, бесспорно, очень хорош. Бэзил Рэтбоун, внешне в точности соответствуя аутентичным иллюстрациям, играет, и весьма убедительно, книжный образ Холмса. Моменты дедукции сыграны превосходно, Холмс Рэтбоуна обладает быстрыми движениями и огоньками в глазах, а также вредными привычками, в финале фильма потребовав у Ватсона шприц. Не лишён он и самоиронии, да и непогрешимым не является — однажды и сам попадает в ловушку, расставленную преступником. Увы, именно в «Собаке» он иногда напоминает ожившую иллюстрацию. Добродушный, но раздражительный толстячок Найджел Брюс, играющий Ватсона чисто в старых традициях, местами уж слишком комичен, слишком изумляется любой дедукции Холмса и слишком подвергается насмешкам приятеля. Почти все открытия, сделанные Ватсоном в книге, переданы Холмсу, доктор лишь собирает информацию. Тем не менее, в паре Холмс и Ватсон смотрятся органично и выглядят искренне привязанными друг к другу друзьями (друзьями были в реальной жизни и Рэтбоун с Брюсом).

Того же не скажешь об исполнителях второстепенных ролей. Мортимер далеко не молод, упитан и злобно посверкивает очками, что превращает его в самого подозрительного персонажа, недаром позже этот актёр играл в цикле профессора Мориарти. Если он хотя бы запоминается, то сэр Генри, играющий вроде бы строго по тексту, картонный красавец, не вызывающий вообще никаких эмоций. С Бэрил Степлтон то же самое, а их любовная линия занимает немалую часть сюжета и завершается хэппи-эндом.

Кто однозначно неплох, это Степлтон в исполнении малоизвестного Мортона Лаури. Сыграны все переходы от показного добродушия к ненависти и коварству. Увы, Стэплтону уделено не так уж много времени.

Бэрримор с женой (хоть Бэрримор в исполнении Джона Кэррадайна, как ни странно, не имеет большой чёрной бороды) тоже неплохи, нервничают, как положено, и вообще выглядят очень подозрительно. Но и им уделено мало места. Есть и Френкленд, такой же старикашка-сутяжник, как и в книге.

Что же до собаки, то, показав её ещё в первой половине фильма, да ещё лишив фосфорической составляющей, столь важной для испуга, авторы тем самым изрядно снизили градус зрительского напряжения, изгнав из фильма мистику.

С детективной составляющей всё тоже вышло странно, хоть основная линия сохранена в неприкосновенности. Холмс местами скармливает Ватсону и сэру Генри такую чепуху под видом своих выводов (в книге, как известно, просто отдавая распоряжения), что сэр Генри выглядит несомненным идиотом. Ирония в фильме, несомненно, присутствует, и даже над Холмсом, но удачна далеко не всегда.

Что в фильме прекрасно, это готические декорации болот. Явные декорации, но очень атмосферные.

В целом — очень типичный во всех отношениях для своего времени фильм, снятый малоизвестным режиссёром и в основном с малоизвестными актёрами. Несомненно, сейчас устаревший, но и не стоит рассматривать его по нынешним лекалам.

Как веха же в кинематографической шерлокиане он ценен, породив одного из лучших наряду с Ливановым и Бреттом Холмсов, спасающего своей игрой весь несколько сумбурный фильм. Да и сама по себе эта экранизация по сравнению со многими другими подходит к первоисточнику куда бережнее, тем самые занимая уж не самое низкое место в списке версий «Собаки Баскервилей».

Ставлю шесть с плюсом, округляю в сторону большего (ибо много куда более худших версий, а эта для своей эпохи очень и очень неплоха и интересна именно как памятник эпохи).
Приключения Шерлока Холмса / The Adventures of Sherlock Holmes (1939) BDRip
Русское название: Приключения Шерлока Холмса
Оригинальное название: The Adventures of Sherlock Holmes
Год выпуска: 1939
Страна: США
Жанр: триллер, криминал, детектив
Кинокомпания: Twentieth Century Fox Film Corporation

Описание фильма: Профессор Мориарти разработал план кражи драгоценности короны из Лондонского Тауэра, чтобы вовлечь в игру Холмса, он убеждает флейтиста-гаучо убить девочку…

Режиссер: Альфред Л. Веркер
Актеры: Бэзил Рэтбоун, Найджел Брюс, Ида Лупино, Джордж Зукко, Алан Маршал, Терри Килбёрн, Генри Стивенсон, Артур Хол, Мэй Битти, Питер Уиллз, Мэри Гордон, Холмс Херберт, Мэри Форбс, Фрэнк Даусон, Энтони Кимбл-Купер, Уильям Остин, Фрэнк Бэйкер, Гордон Харт, Кейт Хичкок, Брэндон Херст, Леонард Мьюди, Джорж Регас, Иван Ф. Симпсон, Фрэнк Бенсон, Гарри Кординг, Роберт Кори, Дэвид Данбар, Херберт Эванс, Нил Фицджералд, Дэнис Грин, Иво Хендерсон, Лейланд Ходжсон, Бойд Ирвин, Чарльз Ирвин, Роберт Нобель, Ч. Монтегю Шоу, Боб Стивенсон, Эрик Вилтон…

Продолжительность: 01:21:42
Перевод: Профессиональный многоголосый закадровый
Субтитры: отсутствуют



Дата мировой премьеры: 1 сентября 1939

Видеокодек: DivX
Битрейт видео: ~2401 kbps
Размер кадра: 640x464
Качество видео: BDRip
Аудиокодек: AC3
Битрейт аудио: 2 ch, ~128.00 kbps
General
Complete name : sh.02.shErlOck.hOlmEs.thE.advEntUrEs.oF.shErlOck.hOlmEs.1939.BDRip.avi
Format : AVI
Format/Info : Audio Video Interleave
File size : 1.45 GiB
Duration : 1h 21mn
Overall bit rate : 2 539 Kbps
Writing application : FairUse Wizard
Writing library : The best and REALLY easy backup tool

Video
ID : 0
Format : MPEG-4 Visual
Format settings, BVOP : 1
Format settings, QPel : No
Format settings, GMC : No warppoints
Format settings, Matrix : Default (MPEG)
Muxing mode : Packed bitstream
Codec ID : DX50
Codec ID/Hint : DivX 5
Duration : 1h 21mn
Bit rate : 2 401 Kbps
Width : 640 pixels
Height : 464 pixels
Display aspect ratio : 1.379
Frame rate : 23.976 fps
Color space : YUV
Chroma subsampling : 4:2:0
Bit depth : 8 bits
Scan type : Progressive
Compression mode : Lossy
Bits/(Pixel*Frame) : 0.337
Stream size : 1.37 GiB (95%)
Writing library : DivX 5.2.1 (DrDivX 106) (UTC 2004-09-08)

Audio
ID : 1
Format : MPEG Audio
Format version : Version 1
Format profile : Layer 3
Mode : Joint stereo
Mode extension : MS Stereo
Codec ID : 55
Codec ID/Hint : MP3
Duration : 1h 21mn
Bit rate mode : Constant
Bit rate : 128 Kbps
Channel(s) : 2 channels
Sampling rate : 48.0 KHz
Compression mode : Lossy
Stream size : 74.8 MiB (5%)
Alignment : Aligned on interleaves
Interleave, duration : 42 ms (1.00 video frame)
Interleave, preload duration : 504 ms
Writing library : LAME3.97
Encoding settings : -m j -V 4 -q 2 -lowpass 17 -b 128
Скриншоты:



Рецензия с сайта КиНОПОиСК от ahairn :
И всё-таки он не женился…
После успеха, который возымела у зрителей «Собака Баскервилей», в том 1939 году кинокомпания «20 век Фокс» решила выпустить второй фильм о деятельности Шерлока Холмса и его друга доктора Ватсона.

На сей раз за основу взята была пьеса Уильяма Джиллета, написанная в своё время с согласия самого сэра Артура Конан Дойля, но по сюжету весьма далёкая от оригинальных рассказов. Мало того, в конце её Холмс женился! Такую перспективу сценаристы, по счастью, отвергли, зато приукрасили сюжет ещё больше.

Уже много лет борется Холмс с профессором Мориарти, гением преступного мира. И вот задумал Мориарти совершить преступление века, обокрасть лондонский Тауэр. А чтобы отвлечь Холмса, подкинул ему другое дело — предполагаемое покушение на жизнь одной молодой и богатой наследницы. Человеколюбивый Холмс, разумеется, занялся этим, и с успехом. Но и до Мориарти он добрался. Не на Рейхенбахском водопаде, впрочем.

Из всей этой истории сценаристами было сооружёно дивное викторианское действо с латиноамериканскими киллерами, древними инками, символами, ночными погонями и, разумеется, финальной схваткой Холмса и Мориарти. Конан Дойл сам любил подобные сюжеты. Но не в рассказах о Холмсе. Детективная линия ощутимо присутствует, есть убийство, ложный подозреваемый, глуповатый инспектор, а Холмс и ползает, собирая улики, и дедуктивно рассуждает. Но при этом рассуждения простые, сюжет вычурный, а несколько небольших логических неувязок в поведении героев никак не объяснены. В то же время жирным плюсом можно отметить прекрасно созданную викторианскую атмосферу, с которой гармонирует причудливый сюжет со своими ужасами, к тому же саму покрывшуюся патиной времени по сравнению с современными образцами жанра. Чувства, что викторианскую Англию изображают, нет.

Хороши и сами исполнители главных ролей — Бэзил Рэтбоун и Найджел Брюс, сработавшиеся окончательно. Рэтбоун — настоящий книжный Холмс, ленивый, но порывистый; соблюдены все манеры и особенности, привычки и склад ума. Иногда он выглядит чуть утрированно, но всё же очень органично, особенно в моменты дедукции. Брюс играет Ватсона туповатым, иногда мешающим делу, но добрым и верным, всегда готовым помочь товарищем Холмса, который везде его с собой водит, словно чтобы демонстрировать дедукцию, и иногда беззлобно подшучивает. Нетрадиционный для нынешнего времени вариант, но великолепно сыгранный. Ирония в фильме вообще есть, а репризы Холмса и Ватсона придают картине комический оттенок.

Про остальных ничего вроде и не скажешь. Мориарти особо никакой. Играющая девушку Ида Люпино испуг изображает хорошо, да и в целом актёры (как и прекрасно подобранная музыка) нагнетают саспенс неплохо, а сюжет разворачивается без излишней спешки, но и не затянут. Увы, бредовая развязка значительно снижает интерес и разочаровывает зрителя.

«Приключения Шерлока Холмса» имели в прокате меньший успех, так что серия на них и закончилась, и была лишь через несколько лет возрождена компанией «Юниверсал» с перенесением действия в современность.

Хорошо снятый фильм на глупый и во многом не холмсовский сюжет. Ставлю четыре балла, но за Рэтбоуна с Брюсом и за атмосферную составляющую добавлю ещё два.
Шерлок Холмс и голос ужаса / Sherlock Holmes and the Voice of Terror (1942) BDRip
Русское название: Шерлок Холмс и голос ужаса
Оригинальное название: Sherlock Holmes and the Voice of Terror
Год выпуска: 1942
Страна: США
Жанр: триллер, криминал, детектив
Кинокомпания: Universal Pictures

Описание фильма: Англия, в начале Второй Мировой Войны. Таинственные радиопередачи, очевидно из Нацистской Германии, слышатся по Би-би-си. Предупреждения относительно терактов в Англии, непосредственно перед тем, как совершаются. Комитет Защиты обращается к Холмсу…

Режиссер: Джон Роулинз
Актеры: Бэзил Рэтбоун, Найджел Брюс, Эвелин Анкерс, Генри Дэниелл, Томас Гомес, Реджинальд Денни, Лейланд Ходжсон, Олаф Хайттен, Монтегю Лав, Артур Блейк, Джордж Шервуд, Дональд Стюарт, Рудольф Андерс, Эдгар Барье, Роберт Баррон, Тед Биллингс, Хиллари Брук, Гарри Кординг, Лесли Дэнисон, Херберт Эванс, Мэри Гордон, Алек Харфорд, Чарльз Джордан, Гэвин Мьюир, Джон Роджерс, Артур Стеннинг, Гарри Стаббс, Джон Вильде…

Продолжительность: 01:05:29
Перевод: Профессиональный многоголосый закадровый
Субтитры: отсутствуют



Дата мировой премьеры: 18 сентября 1942

Видеокодек: DivX
Битрейт видео: ~3028 kbps
Размер кадра: 640x464
Качество видео: BDRip
Аудиокодек: AC3
Битрейт аудио: 2 ch, ~128.00 kbps
General
Complete name : sh.03.shErlOck.hOlmEs.aNd.thE.vOicE.oF.tErrOr.1942.BDRip.avi
Format : AVI
Format/Info : Audio Video Interleave
File size : 1.45 GiB
Duration : 1h 5mn
Overall bit rate : 3 166 Kbps
Writing application : FairUse Wizard
Writing library : The best and REALLY easy backup tool

Video
ID : 0
Format : MPEG-4 Visual
Format settings, BVOP : 1
Format settings, QPel : No
Format settings, GMC : No warppoints
Format settings, Matrix : Default (MPEG)
Muxing mode : Packed bitstream
Codec ID : DX50
Codec ID/Hint : DivX 5
Duration : 1h 5mn
Bit rate : 3 029 Kbps
Width : 640 pixels
Height : 464 pixels
Display aspect ratio : 1.379
Frame rate : 23.976 fps
Color space : YUV
Chroma subsampling : 4:2:0
Bit depth : 8 bits
Scan type : Progressive
Compression mode : Lossy
Bits/(Pixel*Frame) : 0.425
Stream size : 1.39 GiB (96%)
Writing library : DivX 5.2.1 (DrDivX 106) (UTC 2004-09-08)

Audio
ID : 1
Format : MPEG Audio
Format version : Version 1
Format profile : Layer 3
Mode : Joint stereo
Mode extension : MS Stereo
Codec ID : 55
Codec ID/Hint : MP3
Duration : 1h 5mn
Bit rate mode : Constant
Bit rate : 128 Kbps
Channel(s) : 2 channels
Sampling rate : 48.0 KHz
Compression mode : Lossy
Stream size : 60.0 MiB (4%)
Alignment : Aligned on interleaves
Interleave, duration : 42 ms (1.00 video frame)
Interleave, preload duration : 504 ms
Writing library : LAME3.97
Encoding settings : -m j -V 4 -q 2 -lowpass 17 -b 128
Скриншоты:



Рецензия с сайта КиНОПОиСК от ahairn :

В 1942 году американской кино-компании «Юнивёрсал» пришла в голову мысль привлечь к патриотической пропаганде не кого иного, как знаменитого литературного персонажа — великого детектива Шерлока Холмса. С его вечным помощником доктором Ватсоном, разумеется. И неудивительно, что приглашены на эти роли были Бэзил Рэтбоун и Найджел Брюс, всего за три года до этого с большим успехом сыгравшие этих знаменитых героев. Но за эти три года успела начаться война, и из викторианской Англии Холмс и Ватсон переместились в современную, воюющую с нацистами. И стали бороться с шпионами. Так начался известный цикл фильмов, число коих в конечном счёте перевалило за десять.

Итак, непосредственно во времена, современные выпуску фильма, Англию терроризирует радио-передачами некий «Голос ужаса», как он себя называет, вещающий из Рейха. Он предрекает разнообразные террористические акты, которые в точности сбываются, и призывает Англию сдаться. Возникает подозрение, что Голосу каким-то образом известны секретные сведения, и устранить сию угрозу приглашён знаменитый частный сыщик Шерлок Холмс, в 1942 году как ни в чём ни бывало проживающий на Бейкер-стрит, молодой и полный сил.

«Шерлок Холмс и голос ужаса», представляющий собой чистый плод фантазии сценаристов, лишь отдалённо основанный на рассказе Конан Дойла «Его прощальный поклон», несомненно, является патриотической агиткой. Шпионы Рейха проникли всюду, а их самонадеянность порой просто поражает и их же губит. Сюжет разворачивается бодро и не провисает. Тем не менее, детективная интрига ощутимо присутствует, а многие элементы, в том числе личность Голоса, понятны далеко не сразу. Много и патриотических речей, сейчас выглядящих наивными и напыщенными, но, несомненно, полезных и достойных тогда.

Пара Рэтбоун-Брюс здесь во всей красе. Едва ли не единственным минусом Холмса-Рэтбоуна выглядит его причёска — он зачем-то сделан кудрявым. Ватсон-Брюс же слишком часто пребывает в недоумении по поводу почти всех действий Холмса, слишком заметно это недоумение выражает (на что неизменно получает возглас «Элементарно!», причём часто оказывается, что и логических выводов не требовалось), но отлично вписывается в общий контекст и всегда готов помочь и исполнить свой долг. Он доверчив, наивен, но вовсе не выглядит здесь тупицей. Скорее обыкновенным человеком, ничуть не глупее представителей разведки, кои с Голосом сами справиться не смогли.

Уже появилась в фильме и ирония по отношению к героям, ставшая позже отличительной чертой цикла. Особенно хорош эпизод с Холмсом, пытающимся надеть свою знаменитую викторианскую крылатку, и останавливающим его Ватсоном — 1940е годы на дворе! А Ватсон порой приписывает логике Холмса сведения, для получения коих логика совершенно не требовалась.

В итоге вышла агитка-агиткой, но удалась на ура, а смотрится и сейчас. Безусловно, не лучший фильм цикла, но только потому, что позже были сняты превзошедшие его. А сам по себе вполне достойный.
Шерлок Холмс и секретное оружие / Sherlock Holmes and the Secret Weapon (1943) BDRip
Русское название: Шерлок Холмс и секретное оружие
Оригинальное название: Sherlock Holmes and the Secret Weapon
Год выпуска: 1943
Страна: США
Жанр: триллер, драма, криминал, детектив, приключения
Кинокомпания: Universal Pictures

Описание фильма: Дело начинается в Швейцарии, где Шерлок Холмс спасает изобретателя бомбардировочного прицела, который союзники хотят спрятать от Нацистов. Но по возвращении в Лондон, кажется, что изобретатель не тот, кем он представлялся…

Режиссер: Рой Уильям Нилл
Актеры: Бэзил Рэтбоун, Найджел Брюс, Лайонел Этуилл, Карен Верне, Уильям Пост мл., Дэннис Хоуи, Холмс Херберт, Мэри Гордон, Рудольф Андерс, Уит Бисселл, Веда Энн Борг, Пол Брайар, Джон Бертон, Вики Кэмпбелл, Герард Кевин, Гарри Кординг, Джеймс Крэвен, Харольд Де Бекер, Лесли Дэнисон, Джордж Элдридж, Пол Фикс, Лейланд Ходжсон, Гай Кингсфорд, Джордж Барр Маканнан, Майкл Марк, Генри Виктор, Гарри Вудс…

Продолжительность: 00:49:44
Перевод: Профессиональный многоголосый закадровый
Субтитры: отсутствуют



Дата мировой премьеры: 4 января 1943

Видеокодек: DivX
Битрейт видео: ~2998 kbps
Размер кадра: 640x464
Качество видео: BDRip
Аудиокодек: AC3
Битрейт аудио: 2 ch, ~128.00 kbps
General
Complete name : sh.04.shErlOck.hOlmEs.aNd.thE.sEcrEt.weApOn.1943.BDRip.avi
Format : AVI
Format/Info : Audio Video Interleave
File size : 1.09 GiB
Duration : 49mn 44s
Overall bit rate : 3 135 Kbps
Writing application : FairUse Wizard
Writing library : The best and REALLY easy backup tool

Video
ID : 0
Format : MPEG-4 Visual
Format settings, BVOP : 1
Format settings, QPel : No
Format settings, GMC : No warppoints
Format settings, Matrix : Default (MPEG)
Muxing mode : Packed bitstream
Codec ID : DX50
Codec ID/Hint : DivX 5
Duration : 49mn 43s
Bit rate : 2 998 Kbps
Width : 640 pixels
Height : 464 pixels
Display aspect ratio : 1.379
Frame rate : 23.976 fps
Color space : YUV
Chroma subsampling : 4:2:0
Bit depth : 8 bits
Scan type : Progressive
Compression mode : Lossy
Bits/(Pixel*Frame) : 0.421
Stream size : 1.04 GiB (96%)
Writing library : DivX 5.2.1 (DrDivX 106) (UTC 2004-09-08)

Audio
ID : 1
Format : MPEG Audio
Format version : Version 1
Format profile : Layer 3
Mode : Joint stereo
Mode extension : MS Stereo
Codec ID : 55
Codec ID/Hint : MP3
Duration : 49mn 44s
Bit rate mode : Constant
Bit rate : 128 Kbps
Channel(s) : 2 channels
Sampling rate : 48.0 KHz
Compression mode : Lossy
Stream size : 45.5 MiB (4%)
Alignment : Aligned on interleaves
Interleave, duration : 42 ms (1.00 video frame)
Interleave, preload duration : 504 ms
Writing library : LAME3.97
Encoding settings : -m j -V 4 -q 2 -lowpass 17 -b 128
Скриншоты:



Рецензия с сайта КиНОПОиСК от Electro-synth man :
Элементарно, Доктор Тобель.
Перед нами четвёртый фильм из целой пенталогии о приключениях знаменитого сыщика и его преданного напарника, имевшей место быть популярной в 30х-40х.

На этот раз Рой Уильям Нилл во главу тематики фильма поставил актуальный в то время (на дворе тогда был самый разгар II мировой войны) вопрос соперничества и превосходства в военных технологиях между Германией и Великобританией, многие ленты того времени были просто пропитаны мотивом войны, не избежал этой участи и Холмс, в период с 1942 по 1943 годы вышло порядка 4х фильмов о необъяснимом участии Шерлока Холмса и Ватсона в секретных военных операциях и их непосредственном воздействии на исход войны, вообще очень трудно найти причину введения в сферу времён 2ой мировой этих двух литературных персонажей, не имеющих ни какого отношения к событиям этой серии фильмов, чем объяснить работу, а вернее чем руководствовались сценаристы (хотя в титрах и говорят, что фильм основан по мотивам романа Артура Конана Дойля «Пляшущие человечки» но с романом его связывают лишь некоторые моменты) при написании материалов к фильму?

По ходу просмотра этих фильмов создаётся впечатление, что эти ленты нечто иное как обычная антивоенная пропаганда непоколебимости духа и стремления к свободе истинного англичанина…

Как пропаганда и как военный детектив кинофильм Шерлок Холмс и секретное оружие безусловно хорош, но причём тут собственно сам Холмс и его коллега?

Итак, пару слов о сюжете: Наши главные герои берут под свою опёку важного учёного, занимающегося разработкой бомбардировочного прицела, возвращаясь в родной Лондон, как в таких случаях бывает, идёт что-то не так и бедный изобретатель попадает в лапы к «Наполеону преступного мира «профессору Мориарти (которого кстати нет в оригинальном романе, вместо него в качестве антагониста бандит Аб Слени), который всем силами пытается узнать тайну этой технологии…

Безусловно, в фильме интересный интригующий сюжет, не дающий скучать ни на секунду, но эта каша «Холмовской вселенной» и атмосферы войны очень портят восприятие фильма, создателям следовало бы всерьёз поработать над идеей визуализации фильма, полагаю, если бы они показали не обстановку войны, а скажем, атмосферу викторианской Англии, фильм выглядел бы гораздо лучше и больше бы подходил ко вселенной этой великой саги. Но как говорится в данном случае, — хозяин барин…

К главным и существенным плюсам картины можно отнести великолепную игру легендарного неумирающего дуэта — Рэтбоун-Брюс, их контрастность и превосходное взаимодействие порой вызывают желание просто аплодировать, не хочу повторяться, но отмечу что Холмс в исполнении Бэзила Рэтбоуна как нельзя лучше воссоздает образ своего литературного аналога, да, как я уже писал с Ливановым ему конечно не сравниться, но как зарубежная вариация он лучший из виденных мной, неплох так же и Найджел Брюсв амплуа Уотсона, опять же не повторяясь, скажу, что его доктор хоть и выглядит немного глуповатым и рассеянным но он гораздо достойнее того образа, что нам попытался показать актёр Джуд Лоу, в фильме 2009 г.

Так же к главным козырям фильма стоит отнести и потрясающую музыку Фрэнка Скиннера, львиная доля саспенса в киноленте создаётся за её счёт.
Шерлок Холмс в Вашингтоне / Sherlock Holmes in Washington (1943) BDRip
Русское название: Шерлок Холмс в Вашингтоне
Оригинальное название: Sherlock Holmes in Washington
Год выпуска: 1943
Страна: США
Жанр: триллер, криминал, детектив
Кинокомпания: Universal Pictures

Описание фильма: Во время второй мировой войны, секретный британский агент, несущий жизненно важный документ, был похищен на пути в Вашингтон. Британское правительство обращается к Шерлоку Холмсу с просьбой вернуть похищенное…

Режиссер: Рой Уильям Нилл
Актеры: Бэзил Рэтбоун, Найджел Брюс, Марджори Лорд, Генри Дэниелл, Джордж Зукко, Джон Арчер, Гэвин Мьюир, Эдмунд МакДональд, Дон Терри, Брэдли Пейдж, Холмс Херберт, Тьюрстон Холл, Джон Бертон, Эдди Коук, Кэролайн Кук, Эвелин Кук, Кернан Криппс, Лесли Дэнисон, Гилберт Эмери, Элис Флеминг, Мэри Форбс, Мэри Гордон, Джералд Хамер, Лейланд Ходжсон, Александр Локвуд, Чарльз Марш, Том Мартин, Ирвинг Митчел, Кларенс Мьюз, Джин О'Доннелл, Джейсон Робардс ст., Пол Скотт, Маргарет Седдон, Ли Шамвэй, Реджина Уоллес, Фил Уоррен, Йен Вульф, Фредерик Уорлок…

Продолжительность: 01:11:32
Перевод: Профессиональный многоголосый закадровый
Субтитры: отсутствуют



Дата мировой премьеры: 19 апреля 1943

Видеокодек: DivX
Битрейт видео: ~2762 kbps
Размер кадра: 640x464
Качество видео: BDRip
Аудиокодек: AC3
Битрейт аудио: 2 ch, ~128.00 kbps
General
Complete name : sh.05.shErlOck.hOlmEs.iN.wAshingtOn.1943.BDRip.avi
Format : AVI
Format/Info : Audio Video Interleave
File size : 1.45 GiB
Duration : 1h 11mn
Overall bit rate : 2 900 Kbps
Writing application : FairUse Wizard
Writing library : The best and REALLY easy backup tool

Video
ID : 0
Format : MPEG-4 Visual
Format settings, BVOP : 1
Format settings, QPel : No
Format settings, GMC : No warppoints
Format settings, Matrix : Default (MPEG)
Muxing mode : Packed bitstream
Codec ID : DX50
Codec ID/Hint : DivX 5
Duration : 1h 11mn
Bit rate : 2 763 Kbps
Width : 640 pixels
Height : 464 pixels
Display aspect ratio : 1.379
Frame rate : 23.976 fps
Color space : YUV
Chroma subsampling : 4:2:0
Bit depth : 8 bits
Scan type : Progressive
Compression mode : Lossy
Bits/(Pixel*Frame) : 0.388
Stream size : 1.38 GiB (95%)
Writing library : DivX 5.2.1 (DrDivX 106) (UTC 2004-09-08)

Audio
ID : 1
Format : MPEG Audio
Format version : Version 1
Format profile : Layer 3
Mode : Joint stereo
Mode extension : MS Stereo
Codec ID : 55
Codec ID/Hint : MP3
Duration : 1h 11mn
Bit rate mode : Constant
Bit rate : 128 Kbps
Channel(s) : 2 channels
Sampling rate : 48.0 KHz
Compression mode : Lossy
Stream size : 65.5 MiB (4%)
Alignment : Aligned on interleaves
Interleave, duration : 42 ms (1.00 video frame)
Interleave, preload duration : 504 ms
Writing library : LAME3.97
Encoding settings : -m j -V 4 -q 2 -lowpass 17 -b 128
Скриншоты:



Рецензия с сайта КиНОПОиСК от ahairn :

Третий фильм из осовремененной серии о Шерлоке Холмсе в исполнении Бэзила Рэтбоуна, выпущенной компанией «Юниверсал» в годы Второй мировой войны, едва ли не самый странный из всех. И это понятно уже по заглавию, в котором, собственно говоря, всё и сказано — Шерлок Холмс ведёт дело в Вашингтоне.

После предыдущего фильма-нуара создатели сериала вернулись к классической схеме — к Шерлоку Холмсу, сидящему в 1943 году как ни в чём ни бывало на Бейкер-стрит, обращаются за помощью. Вновь обращаются за помощью британские спецслужбы — их агент, везший важные секретные документы, был похищен в Вашингтоне. Довольно быстро Шерлок Холмс устанавливает, где этот документ имеет место быть. И ему вместе с его верным спутником доктором Ватсоном остаётся только съездить в Вашингтон, чтобы документ найти. В гонке с нацистской агентурой.

Все эти события занимают едва ли треть фильма. И уже отлично зная весь секрет, зритель остаток времени наблюдает за шпионскими страстями с участием не слишком-то уместного тут Шерлока Холмса. Главного шпиона играет Джордж Зукко, до этого исполнивший роль профессора Мориарти в «Приключениях Шерлока Холмса», что рождает некоторый когнитивный диссонанс. В общем-то, лучше бы это и был Мориарти; тогда прямолинейный и бесхитростный сюжет приобрёл бы хоть какое-то разнообразие.

Да, в «Шерлоке Холмсе в Вашингтоне» вновь есть традиционные для цикла приёмы — наивный Ватсон, здесь пытающийся осваивать американский образ жизни, дедуктивные экзерцисы Холмса, их иронично поданные взаимоотношения. Но очень быстро это кончается в пользу некоего трибьюта стране, где фильм снимался. С показом достопримечательностей Вашингтона и финальной речью Холмса, цитирующего похвалу американцам за авторством Уинстона Черчилля. Правда, Холмс намного опережает американскую полицию, но подобный сюжет сложновато себе представить даже в высшей степени альтернативном мире цикла за авторством Роя Уильяма Нила. Что до напряжения, то его авторам не слишком-то удаётся поддерживать. И даже возвращение к традиционной стилистике цикла не очень скрашивает скучноватую историю.
Шерлок Холмс перед лицом смерти / Sherlock Holmes Faces Death (1943) BDRip
Русское название: Шерлок Холмс перед лицом смерти
Оригинальное название: Sherlock Holmes Faces Death
Год выпуска: 1943
Страна: США
Жанр: триллер, драма, криминал, детектив, приключения
Кинокомпания: Universal Pictures

Описание фильма: Во время Второй Мировой Войны несколько убийств происходят в санатории, где докторВатсон предложил свои услуги врача. Он вызывает Холмса для помощи, и детективначинает расследование преступления с длинного списка подозреваемых, включая владельцев дома, штата и пациентов, лечащихся там…

Режиссер: Рой Уильям Нилл
Актеры: Бэзил Рэтбоун, Найджел Брюс, Дэннис Хоуи, Артур Маргетсон, Хиллари Брук, Хэллиуэлл Хоббс, Минна Филлипс, Милберн Стоун, Гэвин Мьюир, Джералд Хамер, Вернон Даунинг, Олаф Хайттен, Фредерик Уорлок, Мартин Аше, Джоан Блэр, Чарльз Коулмэн, Харольд Де Бекер, Мэри Гордон, Питер Лоуфорд, Эрик Сноуден, Норма Варден, Хезер Вильде…

Продолжительность: 01:08:06
Перевод: Профессиональный многоголосый закадровый
Субтитры: отсутствуют



Дата мировой премьеры: 17 сентября 1943

Видеокодек: DivX
Битрейт видео: ~2913 kbps
Размер кадра: 640x464
Качество видео: BDRip
Аудиокодек: AC3
Битрейт аудио: 2 ch, ~128.00 kbps
General
Complete name : sh.06.shErlOck.hOlmEs.fAcEs.deAth.1943.BDRip.avi
Format : AVI
Format/Info : Audio Video Interleave
File size : 1.45 GiB
Duration : 1h 8mn
Overall bit rate : 3 051 Kbps
Writing application : FairUse Wizard
Writing library : The best and REALLY easy backup tool

Video
ID : 0
Format : MPEG-4 Visual
Format settings, BVOP : 1
Format settings, QPel : No
Format settings, GMC : No warppoints
Format settings, Matrix : Default (MPEG)
Muxing mode : Packed bitstream
Codec ID : DX50
Codec ID/Hint : DivX 5
Duration : 1h 8mn
Bit rate : 2 913 Kbps
Width : 640 pixels
Height : 464 pixels
Display aspect ratio : 1.379
Frame rate : 23.976 fps
Color space : YUV
Chroma subsampling : 4:2:0
Bit depth : 8 bits
Scan type : Progressive
Compression mode : Lossy
Bits/(Pixel*Frame) : 0.409
Stream size : 1.39 GiB (95%)
Writing library : DivX 5.2.1 (DrDivX 106) (UTC 2004-09-08)

Audio
ID : 1
Format : MPEG Audio
Format version : Version 1
Format profile : Layer 3
Mode : Joint stereo
Mode extension : MS Stereo
Codec ID : 55
Codec ID/Hint : MP3
Duration : 1h 8mn
Bit rate mode : Constant
Bit rate : 128 Kbps
Channel(s) : 2 channels
Sampling rate : 48.0 KHz
Compression mode : Lossy
Stream size : 62.3 MiB (4%)
Alignment : Aligned on interleaves
Interleave, duration : 42 ms (1.00 video frame)
Interleave, preload duration : 504 ms
Writing library : LAME3.97
Encoding settings : -m j -V 4 -q 2 -lowpass 17 -b 128
Скриншоты:



Рецензия с сайта КиНОПОиСК от ahairn :
Истинное возвращение Шерлока Холмса
В цикле фильмов, выпущенных компанией «Юниверсал» с участием Бэзила Рэтбоуна в роли Шерлока Холмса и Найджела Брюса в роли доктора Ватсона, наконец-то появился детектив. Не шпионский, а самый что ни на есть классический. И если вначале кажется, что детективный сюжет всё же осовременен применительно к году выпуска фильма, то нет, передана вся атмосфера именно произведений сэра Артура Конан Дойла.

Да и к сюжету сэра Артура на сей раз подошли достаточно бережно (для этого цикла фильмов). Взяв рассказ «Обряд дома Месгрейвов», всего лишь приукрасили его, сохранив основную идею. Впрочем, маленький рассказ превратился в полноценный детектив едва ли не «Золотого века» — как может показаться поначалу.

Итак, доктор Ватсон, устав от жизни в военном Лондоне, устраивается главным врачом в санаторий для больных офицеров, устроенный в жутковатом старинном поместье Месгрейвов в Нортумберленде. Вот только пациентов мало, и почти все они с причудинкой. А тут сперва на ватсонова помощника покушаются, а потом ещё и хозяина дома убивают. Впору доктору Ватсону съездить на Бейкер-стрит и позвать на помощь своего друга Шерлока Холмса, тем более, что инспектор Лестрейд уже развил бешеную активность.

В отличие от предыдущих фильмов, в «Шерлоке Холмсе перед лицом смерти» совершенно не чувствуется, что действие происходит в годы Второй мировой войны. И хотя в сюжет «Обряда дома Месгрейвов» дописаны несколько преступлений и куча подозреваемых, а само расследование Холмса сильно разукрашено, да и в разгадке кое-что изменилось, весь фильм оставляет впечатление совершенно конандойлевское. Даже встречающиеся мелкие несостыковки и сюжетные странности точно такого же порядка, какие допускал сам сэр Артур, хоть и характерные черты стиля эпохи присутствуют.

Это не говоря о Холмсе. Здесь, пусть и в современной одежде (зато опять с нормальной причёской), Бэзил Рэтбоун — настоящий Холмс. Не ожившая иллюстрация, как в самых первых фильмах, не использованный для выстраивания сюжета неуместный образ, а Холмс, очень похожий на то, что представляешь, читая рассказы. Доктор Ватсон, пусть он в исполнении Найджела Брюса и чуть излишне комичен, тоже вновь встал в идеальную пару с этим Холмсом. Да и инспектор Лестрейд вполне убедителен, и юмористические сценки не натужны и выполнены вполне по-английски.

Получился, безусловно, один из лучших фильмов этой серии — чёткий, строгий, лаконичный, атмосферный. И даже некоторая неубедительность мотивов преступника и несколько изменённая разгадка его не портят.
Паучиха / The Spider Woman (1944) BDRip
Русское название: Паучиха
Оригинальное название: The Spider Woman
Год выпуска: 1944
Страна: США
Жанр: триллер, драма, детектив
Кинокомпания: Universal Pictures

Описание фильма: Лондон взбудоражен серией таинственных самоубийств состоятельных и влиятельных мужчин. Шерлок Холмс приходит к выводу, что поскольку все мужчины покончили жизнь одним способом-выбросились из окна, то это были убийства. Он отправляется вместе с доктором Ватсоном на рыбалку в Шотландию, надеясь немного расслабиться. Там Шерлок Холмс неожиданно говорит доктору Ватсону, что устал от всех этих преступлений и также собирается покончить жизнь самоубийством. Он бросается со скалы. Его тело не находят, но обнаруживают шляпу, плывущую по реке…

Режиссер: Рой Уильям Нилл
Актеры: Бэзил Рэтбоун, Найджел Брюс, Гэйл Сондергаард, Дэннис Хоуи, Вернон Даунинг, Алек Крэйг, Артур Хол, Мэри Гордон, Сильвия Эндрю, Мари Де Бекер, Джимми Обри, Фрэнк Бенсон, Лидия Билбрук, Джон Бертон, Гарри Кординг, Тедди Инфер, Джордж Кирби, Стэнли Логан, Вилбур Макк, Белль Митчел, Эдмунд Мортимер, Джон Рош, Анджело Росситто, Джин Рот, Артур Стеннинг, Дональд Стюарт, Флоренция Уикс…

Продолжительность: 01:02:12
Перевод: Профессиональный многоголосый закадровый
Субтитры: отсутствуют



Дата мировой премьеры: 21 января 1944

Видеокодек: DivX
Битрейт видео: ~2711 kbps
Размер кадра: 640x464
Качество видео: BDRip
Аудиокодек: AC3
Битрейт аудио: 2 ch, ~128.00 kbps
General
Complete name : sh.07.shErlOck.hOlmEs.thE.spidEr.wOmAn.1944.BDRip.avi
Format : AVI
Format/Info : Audio Video Interleave
File size : 1.24 GiB
Duration : 1h 2mn
Overall bit rate : 2 849 Kbps
Writing application : FairUse Wizard
Writing library : The best and REALLY easy backup tool

Video
ID : 0
Format : MPEG-4 Visual
Format settings, BVOP : 1
Format settings, QPel : No
Format settings, GMC : No warppoints
Format settings, Matrix : Default (MPEG)
Muxing mode : Packed bitstream
Codec ID : DX50
Codec ID/Hint : DivX 5
Duration : 1h 2mn
Bit rate : 2 712 Kbps
Width : 640 pixels
Height : 464 pixels
Display aspect ratio : 1.379
Frame rate : 23.976 fps
Color space : YUV
Chroma subsampling : 4:2:0
Bit depth : 8 bits
Scan type : Progressive
Compression mode : Lossy
Bits/(Pixel*Frame) : 0.381
Stream size : 1.18 GiB (95%)
Writing library : DivX 5.2.1 (DrDivX 106) (UTC 2004-09-08)

Audio
ID : 1
Format : MPEG Audio
Format version : Version 1
Format profile : Layer 3
Mode : Joint stereo
Mode extension : MS Stereo
Codec ID : 55
Codec ID/Hint : MP3
Duration : 1h 2mn
Bit rate mode : Constant
Bit rate : 128 Kbps
Channel(s) : 2 channels
Sampling rate : 48.0 KHz
Compression mode : Lossy
Stream size : 56.9 MiB (4%)
Alignment : Aligned on interleaves
Interleave, duration : 42 ms (1.00 video frame)
Interleave, preload duration : 504 ms
Writing library : LAME3.97
Encoding settings : -m j -V 4 -q 2 -lowpass 17 -b 128
Скриншоты:



Рецензия с сайта КиНОПОиСК от Electro-synth man :
Дерзкая и злая, как её пауки.
После просмотра сего киноявления, убедился, что перед нами пожалуй одна из лучших серий целого сериала 40х о похождении великого сыщика и его бессменного компаньона.

Лента представляет собой интерпретированный по своему синтез сюжетов из двух романов неумирающего Артура Конан Дойла — «Знак четырех» и «Последняя схватка» (а так же элементы рассказов Шерлок Холмс при смерти», «Последнее дело Холмса», «Пустой дом», «Дьяволова нога» и Пёстрая лента.) : Шерлок Холмс и Ватсон отправляются на заслуженный отдых, где сыщик заявляет своему другу о том что собирается окончить дело всей своей жизни, Ватсону это кажется подозрительным, и он узнает у своего друга страшную правду -тот серьёзно болен и хочет уйти на покой, когда он начинает собираться, чтобы немедленно отвезти Холмса и начать его излечение, тот вдруг внезапно пропадает, инсценируя смерть. Параллельно с этим в Лондоне происходит внезапный всплеск странных самоубийств, которые придется расследовать внезапно «воскресшему» Холмсу» и его другу, по течению сюжета они столкнуться с опасной, бессердечной, умной и хитрой преступницей, главным орудием которой будут смертельно ядовитые пауки.

Я жду всего и ничего

Фильм, как и всего собратья по сериалу интересен своим непередаваемым стилем, интригующим, хоть и несколько видоизмененным, отведенным от литературных первоисточников сюжетом (в принципе этим грешили почти все серии сериала), так же в ленте очень неплохие, хотя и не лишённые некоторой комичности, диалоги главных героев и других персонажей, и как в других фильмах «сериала» большую часть «забавности» задаёт Найджел Брюс, хоть глуповато и наивно это смотрится, но впечатление от ленты не портит, интересный ход в использовании ядовитых пауков и пигмея, как орудия преступления, и насколько я заметил, в этом фильме одно из самых больших количеств покушений (по сравнению с другими сериями) на главных героев, впечатляет.

Ну и конечно же главная «антагонистка» фильма- по уровню жестокости, уровню изощрённого интеллекта, коварства и хитрости она уступает разве что профессору Мориарти и полковнику Себастьяну Морану, актриса Гэйл Сондергаард великолепно воплотила настоящую злодейку, готовую на всё ради достижения определённой цели, достаточно взглянуть в её лицо и глаза и если внимательно приглядеться. то можно прочитать в них настоящее коварство и дьявольскую сущность, настолько хорошо она сыграла…

И как во всех сериях, в первую очередь перед нами предстает великолепный, неувядающий, бессмертный дуэт Бэзил Рэтбоун -Найджел Брюс, они короли в этих фильмах, и за уровень их игры стоит с почтением снять шляпу, они никогда не надоедали в своих фильмах, и гениально воплощали своих персонажей, имя которых, как и самих актёров не подвергается и не будет подвержено забвению.
Шерлок Холмс: Багровый коготь / The Scarlet Claw (1944) BDRip
Русское название: Шерлок Холмс: Багровый коготь
Оригинальное название: The Scarlet Claw
Год выпуска: 1944
Страна: США
Жанр: триллер, криминал, детектив
Кинокомпания: Universal Pictures

Описание фильма: Приехав в Канаду на встречу королевского общества по оккультизму, Шерлок Холмс и доктор Ватсон сталкиваются со старинным поверьем о деревушке Ле Морт Руж (Красная смерть), где по преданию, на болотах бродит призрак, разрывающий своим жертвам горло. Хотя скептицизм Холмса встретил холодный прием среди участников конгресса, после смерти от руки призрака жены одного из участников - Лорда Пенроуза, Холмс отправляется в Ле Морт Руж, чтобы расследовать череду таинственных убийств…

Режиссер: Рой Уильям Нилл
Актеры: Бэзил Рэтбоун, Найджел Брюс, Джералд Хамер, Пол Кэвэна, Артур Хол, Майлз Мандер, Кэй Хардинг, Дэвид Клайд, Йен Вульф, Виктория Хорн, Гарри Аллен, Гертруда Эстор, Фрэнк Остин, Тед Биллингс, Хорас Б. Карпентер, Билл Картледж, Уильям Десмонд, Аль Фергюсон, Клайд Филлмор, Чарльз Френсис, Олаф Хайттен, Джордж Кирби, Чарльз Найт, Эрик Мэйн, Норберт Мюллер, Пьетро Соссо, Тони Треверс, Эрик Вилтон…

Продолжительность: 01:13:49
Перевод: Профессиональный многоголосый закадровый
Субтитры: отсутствуют



Дата мировой премьеры: 18 мая 1944

Видеокодек: DivX
Битрейт видео: ~2673 kbps
Размер кадра: 640x464
Качество видео: BDRip
Аудиокодек: AC3
Битрейт аудио: 2 ch, ~128.00 kbps
General
Complete name : sh.08.shErlOck.hOlmEs.thE.scArlEt.clAw.1944.BDRip.avi
Format : AVI
Format/Info : Audio Video Interleave
File size : 1.45 GiB
Duration : 1h 13mn
Overall bit rate : 2 811 Kbps
Writing application : FairUse Wizard
Writing library : The best and REALLY easy backup tool

Video
ID : 0
Format : MPEG-4 Visual
Format settings, BVOP : 1
Format settings, QPel : No
Format settings, GMC : No warppoints
Format settings, Matrix : Default (MPEG)
Muxing mode : Packed bitstream
Codec ID : DX50
Codec ID/Hint : DivX 5
Duration : 1h 13mn
Bit rate : 2 674 Kbps
Width : 640 pixels
Height : 464 pixels
Display aspect ratio : 1.379
Frame rate : 23.976 fps
Color space : YUV
Chroma subsampling : 4:2:0
Bit depth : 8 bits
Scan type : Progressive
Compression mode : Lossy
Bits/(Pixel*Frame) : 0.376
Stream size : 1.38 GiB (95%)
Writing library : DivX 5.2.1 (DrDivX 106) (UTC 2004-09-08)

Audio
ID : 1
Format : MPEG Audio
Format version : Version 1
Format profile : Layer 3
Mode : Joint stereo
Mode extension : MS Stereo
Codec ID : 55
Codec ID/Hint : MP3
Duration : 1h 13mn
Bit rate mode : Constant
Bit rate : 128 Kbps
Channel(s) : 2 channels
Sampling rate : 48.0 KHz
Compression mode : Lossy
Stream size : 67.6 MiB (5%)
Alignment : Aligned on interleaves
Interleave, duration : 42 ms (1.00 video frame)
Interleave, preload duration : 504 ms
Writing library : LAME3.97
Encoding settings : -m j -V 4 -q 2 -lowpass 17 -b 128
Скриншоты:



Рецензия с сайта КиНОПОиСК от Electro-synth man :
Венец серии !
Учтя ошибки и огрехи, совершённые в «военной трилогии», Рой Уильям Нил очень серьёзно занялся работой над сюжетными составляющими и визуальной тематикой. Первым его лучиком света в казалось бы его «затемнённой» войной и её предметом серией, стала работа «Шерлок Холмс перед лицом смерти», вернувшая ему успех и признание критиков и ставшая по сути первым полноценным «классическим» детективом в серии. Затем последовала великолепная «Паучиха» ну и наконец сегодняшний венец нашего обзора — «Багровый коготь».

Должен признать, что пожалуй «Коготь» является одной из самых сильных частей сериала, в нём потрясающе выдержана мрачная атмосфера богом забытой канадской деревушки, в которой происходит цепочка жутких и зверских убийств, отойдя от прямых заимствований тем из произведений Конан Дойла, Нил сделал следующее — взяв за основу лишь детали некоторых произведений сэра Артура и написав совершенно новый, непохожий сценарий, не «по произведениям», он по сути создал абсолютно новое произведение о приключении старых добрых Холмса и Джона Уотсона.

От блестящего сценария проистекает и превосходный сюжет, рассказывающий нам о расследовании нашими друзьями цепочки таинственных и жутких убийств, происходящих в в старой и далёкой от цивилизации канадской деревушке Ле Морт Руж и о том как Холмс и Уотсон наткнутся на след опасного, хитрого и жестокого маньяка, обладающего не только способностью уходить от преследования но и быть бесподобным актёром, перевоплощаться практически в любого и оставаться незамеченным.

Несмотря на то, что сценарий фильма напрямую не относится к какому-либо произведению Конан-Дойла, в нём всё же отчётливо можно увидеть небольшие элементы из «Собаки Баскервилей», «Тайны Боскомской долины» и ещё целого ряда произведений. Причём сам режиссёр как бы не указывает напрямую на эти детали, а изредка предоставляет их зрителю, лёгкими намёками, чтобы зритель сам увидел и смог проанализировать.

Но самое великолепное в фильме, этой пожалуй атмосфера. Мрачные, леденящие душу одним только своим видом болота, где по ночам якобы бродит светящееся чудовище, разрывающее запоздалым путникам глотки, одинокая деревушка, с тёмными улочками, граничащая между цивилизацией и дикой местностью — всё это впечатляет, держит в определённой степени сеспенсе и в фильме можно выделить также мистическую составляющую, в ленте видно, как глубоко Нил проникся к верованиям канадских деревенских жителей — многие жители Ле Морт Руж серьёзно верят в существование демонического чудовища-полтергейста нападающего на людей и искренне боятся, Нилу удалось в свойственной ему манере показать весть мистицизм преданий, легенд и мифов деревенской жизни.

Но при этом он не забывает и о детективной части, с этим здесь всё тоже без изъяна, главные герои по-прежнему с особым рвением и некоторой долей героизма расследуют дело, находят виновника и предают его справедливому суду, по-прежнему главную позицию и инициативу занимает и проявляет Холмс, а Уотсон за ним старательно следует и пытается ему во всём помогать, кстати Уотсон в этой части не настолько дурацки комичен, коим его выставлял во большинстве фильмах Нил, здесь он именно больше похож на помощника Холмса, и на своего литературного прототипа, чем на его дополнительную головную боль, хотя и здесь он умудряется нелепым образом провалиться в болото, причём два раза.

О самих актёрах, я думаю не стоит слишком много разглагольствовать, отмечу только то, что дуэт Рэтбоун-Брюс — это целая эпоха в Холмсианском кинематографе, это целая династия, целая эпопея, если хотите и целый этап, оказавший громаднейшее влияние на кино и его представление о вселенной великого мастера дедукции.

Я абсолютно не удивляюсь, почему многие критики и поклонники данной серии фильмов считают эту ленту лучшей из пенталогии, выпущенной компанией Universal, отличный сюжет, блестящее исполнение актёрского состава, гениально поданная атмосфера и отличные диалоги, разве можно в этом сомневаться?
Шерлок Холмс: Жемчужина смерти /
The Pearl of Death (1944) BDRip

Русское название: Шерлок Холмс: Жемчужина смерти
Оригинальное название: The Pearl of Death
Год выпуска: 1944
Страна: США
Жанр: триллер, драма, криминал, детектив
Кинокомпания: Universal Pictures

Описание фильма: В этом деле Холмс и Ватсон охраняют бесценный Жемчуг Борджиа, «проклятый» драгоценный камень, который вдохновил множество убийств за свою жизнь. Их главный противник - Джайлс Коновер, который, невзирая на все помехи его попыткам украсть Жемчуг, все же сумеет дискредитировать Холмса в глазах публики…

Режиссер: Рой Уильям Нилл
Актеры: Бэзил Рэтбоун, Найджел Брюс, Дэннис Хоуи, Эвелин Анкерс, Майлз Мандер, Йен Вульф, Чарльз Френсис, Холмс Херберт, Ричард Ахерн, Мэри Гордон, Рондо Хаттон, Дж.В. Остин, Уилсон Бендж, Билли Беван, Лиллиэн Бронсон, Гарри Кординг, Харольд Де Бекер, Лесли Дэнисон, Аль Фергюсон, Лейланд Ходжсон, Колин Кенни, Чарльз Найт, Конни Леон, Одри Мэннерс, Джон Меркил, Артур Малинер, Артур Стеннинг, Дэвид Тарсби, Эрик Вилтон…

Продолжительность: 01:08:41
Перевод: Профессиональный многоголосый закадровый
Субтитры: отсутствуют



Дата мировой премьеры: 1 августа 1944

Видеокодек: DivX
Битрейт видео: ~2809 kbps
Размер кадра: 640x464
Качество видео: BDRip
Аудиокодек: AC3
Битрейт аудио: 2 ch, ~128.00 kbps
General
Complete name : sh.09.shErlOck.hOlmEs.thE.peArl.oF.deAth.1944.BDRip.avi
Format : AVI
Format/Info : Audio Video Interleave
File size : 1.41 GiB
Duration : 1h 8mn
Overall bit rate : 2 947 Kbps
Writing application : FairUse Wizard
Writing library : The best and REALLY easy backup tool

Video
ID : 0
Format : MPEG-4 Visual
Format settings, BVOP : 1
Format settings, QPel : No
Format settings, GMC : No warppoints
Format settings, Matrix : Default (MPEG)
Muxing mode : Packed bitstream
Codec ID : DX50
Codec ID/Hint : DivX 5
Duration : 1h 8mn
Bit rate : 2 810 Kbps
Width : 640 pixels
Height : 464 pixels
Display aspect ratio : 1.379
Frame rate : 23.976 fps
Color space : YUV
Chroma subsampling : 4:2:0
Bit depth : 8 bits
Scan type : Progressive
Compression mode : Lossy
Bits/(Pixel*Frame) : 0.395
Stream size : 1.35 GiB (95%)
Writing library : DivX 5.2.1 (DrDivX 106) (UTC 2004-09-08)

Audio
ID : 1
Format : MPEG Audio
Format version : Version 1
Format profile : Layer 3
Mode : Joint stereo
Mode extension : MS Stereo
Codec ID : 55
Codec ID/Hint : MP3
Duration : 1h 8mn
Bit rate mode : Constant
Bit rate : 128 Kbps
Channel(s) : 2 channels
Sampling rate : 48.0 KHz
Compression mode : Lossy
Stream size : 62.9 MiB (4%)
Alignment : Aligned on interleaves
Interleave, duration : 42 ms (1.00 video frame)
Interleave, preload duration : 504 ms
Writing library : LAME3.97
Encoding settings : -m j -V 4 -q 2 -lowpass 17 -b 128
Скриншоты:



Рецензия с сайта КиНОПОиСК от Electro-synth man :
Жемчужина жанра.
И снова Рой Уильям Нилл на коне своего творчества ! Девятый фильм из цикла о приключениях неутомимого мастера дедукции Шерлока Холмса и его друга, биографа и напарника доктора Джона Уотсона получился по меньшей мере каноничным, более близким к духу произведений сэра Артура Конан Дойла.

Как и во всех его лентах «цикла», в «Жемчужине» выдержана блестящая атмосфера английской жизни, хотя так же как и в других фильмах серии Нилл умудрился «поколдовать» со слиянием двух разных эпох, двух разных измерений — Дойловского викторианского Лондона и Лондона начала 20 века, словом как и в большинстве других частей, в ленте происходит некоторое подобие «каши», конечно впечатление от просмотра сие явление не портит, но как меня забавляет эта любовь Нилла к смешению разных временных параллелей, которая кочует из серии к серии.

Сюжет фильма представляет собой свободную вариацию, я бы сказал свободную импровизацию на произведение» Шесть Наполеонов» — Наши друзья расследуют пропажу Жемчуга Борджиа и параллельно с этим занимаются раскрытием загадочной серии жестоких убийств сопровождаемых уничтожением посуды и бюстов Наполеона, словом всё идёт почти так, как должно быть по канонам, установленным Конан Дойлом, сценарист Бертрам Миллхаузер, работавший над сценарием и других частей, очень неплохо перевёл рассказ в сферу кино, конечно не обошлось без «Нилловских» вольностей, но что там говорить, детектив отлично получился, однозначно экранизация удалась !

Этот фильм, как в принципе и большинство других частей Нилловской саги — признанная классика мирового детектива, вероятно любителям современного «цифрового» детектива она покажется нудной, скучной, вялой, монотонной, заезженной, одряхлевшей и устаревшей, а вот ценителям классического «неосовремененного» детектива, более чем уверен, такие фильмы на вес золота.

Именно переодическая монотонность, медлительное течение событий и отсутствие так называемых «экш» моментов, которых в современных детективах уж слижком, чрезмерно много, превращают такие фильмы в бесподобные киноспектакли, основное действие в которых завораживает зрителя, заставляет наблюдать как бы не только за действиями главных героев, но и за их рассуждениями, умозаключениями, логическими выводами, а что есть настоящее детективное расследование, как не умозаключение помноженное на рассуждение соединёные единой логической ветвью ?

А что касается актёров, то здесь пожалуй всё очевидно и неоспоримо : дуэт Бэзил Рэтбоун -Найджел Брюс как всегда неотразим, каждый из них ключевая составляющая фильма, его опора, его несущая стена. С каждым проссмотренным холмсовским фильмом с участием Рэтбоуна и Брюса, убеждаюсь, что они просто были рождены для этих ролей, они своими ролями просто революционировали и довели почти до идеала представления кинематографа о Шерлоке Холмсе и его вселенной, они были первыми кто создал такие яркие и харизматичные амплуа великих литературных персонажей, и их имена навеки будут записаны в мировой истории кино.
Шерлок Холмс: Замок ужаса / The House of Fear (1945) BDRip
Русское название: Шерлок Холмс: Замок ужаса
Оригинальное название: The House of Fear
Год выпуска: 1945
Страна: США
Жанр: триллер, криминал, детектив
Кинокомпания: Universal Pictures

Описание фильма: В мрачном особняке па западе Шотландии обедают семь членов «Клуба Хороших Товарищей». Один из них получает любопытную смертельную угрозу, конверт, содержащий семь апельсиновых косточек. Он умирает следующей ночью в автокатастрофе.
На его похоронах другой член получает конверт с шестью косточками, и десять дней спустя его тело возвращено морем. Шерлок Холмс приглашен расследовать это дело…

Режиссер: Рой Уильям Нилл
Актеры: Бэзил Рэтбоун, Найджел Брюс, Обри Мэтер, Дэннис Хоуи, Пол Кэвэна, Холмс Херберт, Гарри Кординг, Сэлли Шеперд, Гэвин Мьюир, Флоретт Хиллиер, Дэвид Клайд, Ричард Александр, Уилсон Бендж, Алек Крэйг, Сайрил Делеванти, Лесли Дэнисон, Дорис Ллойд, Дэвид Тарсби…

Продолжительность: 01:09:11
Перевод: Профессиональный многоголосый закадровый
Субтитры: отсутствуют



Дата мировой премьеры: 8 февраля 1945

Видеокодек: DivX
Битрейт видео: ~2857 kbps
Размер кадра: 640x464
Качество видео: BDRip
Аудиокодек: AC3
Битрейт аудио: 2 ch, ~128.00 kbps
General
Complete name : sh.10.shErlOck.hOlmEs.thE.hOusE.oF.feAr.1945.BDRip.avi
Format : AVI
Format/Info : Audio Video Interleave
File size : 1.45 GiB
Duration : 1h 9mn
Overall bit rate : 2 995 Kbps
Writing application : FairUse Wizard
Writing library : The best and REALLY easy backup tool

Video
ID : 0
Format : MPEG-4 Visual
Format settings, BVOP : 1
Format settings, QPel : No
Format settings, GMC : No warppoints
Format settings, Matrix : Default (MPEG)
Muxing mode : Packed bitstream
Codec ID : DX50
Codec ID/Hint : DivX 5
Duration : 1h 9mn
Bit rate : 2 858 Kbps
Width : 640 pixels
Height : 464 pixels
Display aspect ratio : 1.379
Frame rate : 23.976 fps
Color space : YUV
Chroma subsampling : 4:2:0
Bit depth : 8 bits
Scan type : Progressive
Compression mode : Lossy
Bits/(Pixel*Frame) : 0.401
Stream size : 1.38 GiB (95%)
Writing library : DivX 5.2.1 (DrDivX 106) (UTC 2004-09-08)

Audio
ID : 1
Format : MPEG Audio
Format version : Version 1
Format profile : Layer 3
Mode : Joint stereo
Mode extension : MS Stereo
Codec ID : 55
Codec ID/Hint : MP3
Duration : 1h 9mn
Bit rate mode : Constant
Bit rate : 128 Kbps
Channel(s) : 2 channels
Sampling rate : 48.0 KHz
Compression mode : Lossy
Stream size : 63.3 MiB (4%)
Alignment : Aligned on interleaves
Interleave, duration : 42 ms (1.00 video frame)
Interleave, preload duration : 504 ms
Writing library : LAME3.97
Encoding settings : -m j -V 4 -q 2 -lowpass 17 -b 128
Скриншоты:



Рецензия с сайта КиНОПОиСК от Electro-synth man :
Дело о добрых товарищах.
Когда я слышу звучное «мистер Шерлок Холмс»? мне на память приходят десятки произведений о приключениях этого величайшего и гениальнейшего сыщика, и потрясающие образы, воплощённые Василием Ливановым, Кристофером Ли, Питером Кашингом, Мэттом Фрюэром и т. д. Но сравнительно недавно я открыл для себя совсем другого Холмса — Бейзила Рэтбоуна, изучив порядка 10 фильмов о Шерлоке Холмсе с участием Рэтбоуна, я убедился в том, что были достойные вариации и до Василия Ливанова, недаром в кино истории бытует тот факт, что создание первого в истории удачного и по-настоящему запомнившегося дуэта Великого Детектива и его компаньона принадлежит Именно Рэтбоуну и его коллеге — актёру Найджелу Брюсу. В тех виденных мной девяти картинах (как я потом узнал существует аж 14 частей, выходивших в период с 1939 по 1946 г), что были сняты с участием этих двух актеров, были отчётливо видны личные взаимоотношения этих персонажей, а внешний облик актеров настолько точно совпал с представлениями публики о Холмсе и Уотсоне, что до сих пор многие зарубежные кинокритики образ Холмса ассоциируют именно с ролью этого замечательного британского актёра… Конечно были из этой «черно-белой» антологии и слабые фильмы, смотреть которые смогут только истинные поклонники Холмса, но есть и удивительно сильные, интересные проекты: Собака Баскервилей, Приключения Шерлока Холмса, Шерлок Холмс и голос ужаса, Женщина в зеленом, Шерлок Холмс в Вашингтоне и конечно же наш сегодняшний объект изучения, фильм режиссёра Роя Уильяма Нилла «Замок ужаса»

Я подозреваю всех и никого

Итак, фабула фильма представляет собой вольную экранизацию романа Артура Конан Дойла «Пять апельсиновых зёрнышек» (так уж получилось, что я сначала посмотрел фильм, а только потом прочел литературный первоисточник): Члены клуба «Хороших товарищей» один за другим получают письма с апельсиновыми косточками в качестве содержимого и последовательно погибают в несчастных случаях, собственно Холмс и Ватсон начинают расследовать это дело, но сталкиваются со многими несоответствиями и не стыковками, мешающими дальнейшему раскрытию этого загадочного явления.

Конечно не скажу, что лента полностью основана на произведении, я бы отметил, что во многом в фильме лишь взята концепция, идея: Апельсиновые зёрнышки в письмах качестве предзнаменования неминуемой смерти, это единственное что связывает фильм и книгу, что касается остального: обстановки, места действия, хода событий атмосферы и даже персонажей (если в фильме в качестве «жертв» преступления выступают участники клуба, то в произведении от рук злоумышленников страдали члены отдельной семьи), то это два абсолютно не похожих культурных явления, которые не нужно сравнивать или объединять в один «культурный» ряд, их нужно рассматривать, как две совершенно разные реалии.

Далее, что касается игры актёров, то несмотря на почтенный для фильма возраст (66 лет), работа актёров смотрится невероятно легко, ярко и интригующе (даже если брать во внимание тот факт, что некоторые диалоги в ленте выглядят несколько наивно и глуповато).

Бэзил Рэтбоун, он же великий Шерлок Холмс — блестяще справился с возложенной на него миссией, хотя его персонаж и не так великолепен, как герой Ливанова, но он создал по-настоящему интересную личность: он скрытный, совершенно невозмутимый, уравновешенный, время от времени отпускает загадочные замечания, которые по идее должны навести его коллегу Уотсона на некоторые соображения, очень энергичный и внешне достаточно интересный и обаятельный, собственно эта его природная обаятельность и привлекает с самого начала фильма и не отпускает вплоть до финальных титров.

Найджел Брюс он же Уотсон, единственный и преданнейший давнишний друг, помощник и напарник в нелёгком ремесле Холмса, сравнивать его с Виталием Соломиным я думаю не стоит, но с ролью он справился потрясающе, ещё бы чуть-чуть живости, чувственности и он смог бы конкурировать со своим советским аналогом.

Интересны так же и персонажи Обри Мэтера (его Брюс Аластэр получился весьма комичным), Дэнниса Хоуи, Пола Кэвэна и Холмса Херберта хотя они и не несут большого влияния на общую визуализацию ленты, их персонажи делают течение сюжета более интересным и легкоусвояемым.

Не справедливо будет и не отметить потрясающее музыкальное оформление Пола Соутелла, он настолько гармонично подходит к фильму, что кинопроизведение без него потеряло бы половину своих преимуществ.
Шерлок Холмс: Женщина в зеленом / The Woman in Green (1945) BDRip
Русское название: Шерлок Холмс: Женщина в зеленом
Оригинальное название: The Woman in Green
Год выпуска: 1945
Страна: США
Жанр: ужасы, триллер, драма, криминал, детектив
Кинокомпания: Legend Films, Universal Pictures

Описание фильма: Холмс и Ватсон исследуют ряд причудливых и очевидно несвязанных убийств, и смерти возможного подозреваемого. След приводит к обществу гипнотизеров и таинственной, обворожительной женщине. Жестокий Доктор Мориарти, про которого хотя и известно, что он находится в Монтевидео, наверняка окажется втянутым в это дело…

Режиссер: Рой Уильям Нилл
Актеры: Бэзил Рэтбоун, Найджел Брюс, Хиллари Брук, Генри Дэниелл, Пол Кэвэна, Мэттью Болтон, Ив Эмбер, Фредерик Уорлок, Том Брайсон, Сэлли Шеперд, Мэри Гордон, Ив Эшли, Джон Бертон, Харольд Де Бекер, Лесли Дэнисон, Тони Эллис, Кэй Хардинг, Алек Харфорд, Иво Хендерсон, Томми Хьюз, Колин Хантер, Олаф Хайттен, Бойд Ирвин, Эрик Мэйн, Билл О'Брайэн, Виолет Ситон, Артур Стеннинг, Персивал Вивиан…

Продолжительность: 01:07:45
Перевод: Профессиональный многоголосый закадровый
Субтитры: отсутствуют



Дата мировой премьеры: 15 июня 1945

Видеокодек: DivX
Битрейт видео: ~2404 kbps
Размер кадра: 640x464
Качество видео: BDRip
Аудиокодек: AC3
Битрейт аудио: 2 ch, ~128.00 kbps
General
Complete name : sh.11.shErlOck.hOlmEs.thE.wOmAn.iN.greEn.1945.BDRip.avi
Format : AVI
Format/Info : Audio Video Interleave
File size : 1.20 GiB
Duration : 1h 7mn
Overall bit rate : 2 542 Kbps
Writing application : FairUse Wizard
Writing library : The best and REALLY easy backup tool

Video
ID : 0
Format : MPEG-4 Visual
Format settings, BVOP : 1
Format settings, QPel : No
Format settings, GMC : No warppoints
Format settings, Matrix : Default (MPEG)
Muxing mode : Packed bitstream
Codec ID : DX50
Codec ID/Hint : DivX 5
Duration : 1h 7mn
Bit rate : 2 405 Kbps
Width : 640 pixels
Height : 464 pixels
Display aspect ratio : 1.379
Frame rate : 23.976 fps
Color space : YUV
Chroma subsampling : 4:2:0
Bit depth : 8 bits
Scan type : Progressive
Compression mode : Lossy
Bits/(Pixel*Frame) : 0.338
Stream size : 1.14 GiB (95%)
Writing library : DivX 5.2.1 (DrDivX 106) (UTC 2004-09-08)

Audio
ID : 1
Format : MPEG Audio
Format version : Version 1
Format profile : Layer 3
Mode : Joint stereo
Mode extension : MS Stereo
Codec ID : 55
Codec ID/Hint : MP3
Duration : 1h 7mn
Bit rate mode : Constant
Bit rate : 128 Kbps
Channel(s) : 2 channels
Sampling rate : 48.0 KHz
Compression mode : Lossy
Stream size : 62.0 MiB (5%)
Alignment : Aligned on interleaves
Interleave, duration : 42 ms (1.00 video frame)
Interleave, preload duration : 504 ms
Writing library : LAME3.97
Encoding settings : -m j -V 4 -q 2 -lowpass 17 -b 128
Скриншоты:



Рецензия с сайта КиНОПОиСК от Electro-synth man :
Опасная сила гипноза
И новая страница в приключениях Шерлока Холмса 40х — Бэзила Рэтбоуна.

На этот раз Холмсу и его старому доброму другу и коллеге доктору Ватсону предстоит расследовать череду таинственных у и жутких убийств, прокатившихся по Лондону, в их руках лишь нити тех фактов, что убийца, а точнее привлекательная блондинка, имеет прямое отношение к убийствам, отлично владеет гипнозом, заманивает преимущественно состоятельных мужчин к себе домой и состоит в клубе людей, интересующихся способностью управлять гипнозом.. Но раскрытие этого дела вновь лицом к лицу столкнет героев с чудовищным профессором Мориарти.

У режиссёрского руля снова числится незабвенный Рой Уильям Нилл, с его оригинальной манерой подачи вселенной Шерлока Холмса, а это означает, что нас ждёт та же фирменная монотонность (в хорошем понимании этой лексемы), свойственная фильмам из серии снятых им, те же забавные, хоть и порой глуповатые диалоги. Интересные увлекательные сюжеты и интриги, и конечно же потрясающий неумирающий дуэт Бэзил Рэтбоун -Найджел Брюс главная жемчужина, главный бриллиант всего киносериала.
Погоня в Алжире / Pursuit to Algiers (1945) BDRip
Русское название: Погоня в Алжире
Оригинальное название: Pursuit to Algiers
Год выпуска: 1945
Страна: США
Жанр: криминал, детектив, приключения
Кинокомпания: Universal Pictures

Описание фильма: Холмс и Уотсон сопровождают принца Николай, наследника Восточного царства, на пассажирском корабле из Англии в Алжир. Принца представляют, как племянника Уотсона, и он является объектом многочисленных покушений, лиц желающих захватить контроль над страной…

Режиссер: Рой Уильям Нилл
Актеры: Бэзил Рэтбоун, Найджел Брюс, Марджори Риордан, Розалинд Иван, Мортон Лоури, Лесли Винсент, Мартин Кослек, Рекс Эванс, Джон Эбботт, Джералд Хамер, Уильям Дэвис, Том Диллон, Фредерик Уорлок, Свен Хьюго Борг, Уилсон Бендж, Грегори Гайе, Олаф Хайттен, Дороти Келлогг…

Продолжительность: 01:05:05
Перевод: Профессиональный многоголосый закадровый
Субтитры: отсутствуют



Дата мировой премьеры: 26 октября 1945

Видеокодек: DivX
Битрейт видео: ~2863 kbps
Размер кадра: 640x464
Качество видео: BDRip
Аудиокодек: AC3
Битрейт аудио: 2 ch, ~128.00 kbps
General
Complete name : sh.12.shErlOck.hOlmEs.pUrsUit.tO.algiErs.1945.BDRip.avi
Format : AVI
Format/Info : Audio Video Interleave
File size : 1.36 GiB
Duration : 1h 5mn
Overall bit rate : 3 001 Kbps
Writing application : FairUse Wizard
Writing library : The best and REALLY easy backup tool

Video
ID : 0
Format : MPEG-4 Visual
Format settings, BVOP : 1
Format settings, QPel : No
Format settings, GMC : No warppoints
Format settings, Matrix : Default (MPEG)
Muxing mode : Packed bitstream
Codec ID : DX50
Codec ID/Hint : DivX 5
Duration : 1h 5mn
Bit rate : 2 864 Kbps
Width : 640 pixels
Height : 464 pixels
Display aspect ratio : 1.379
Frame rate : 23.976 fps
Color space : YUV
Chroma subsampling : 4:2:0
Bit depth : 8 bits
Scan type : Progressive
Compression mode : Lossy
Bits/(Pixel*Frame) : 0.402
Stream size : 1.30 GiB (95%)
Writing library : DivX 5.2.1 (DrDivX 106) (UTC 2004-09-08)

Audio
ID : 1
Format : MPEG Audio
Format version : Version 1
Format profile : Layer 3
Mode : Joint stereo
Mode extension : MS Stereo
Codec ID : 55
Codec ID/Hint : MP3
Duration : 1h 5mn
Bit rate mode : Constant
Bit rate : 128 Kbps
Channel(s) : 2 channels
Sampling rate : 48.0 KHz
Compression mode : Lossy
Stream size : 59.6 MiB (4%)
Alignment : Aligned on interleaves
Interleave, duration : 42 ms (1.00 video frame)
Interleave, preload duration : 504 ms
Writing library : LAME3.97
Encoding settings : -m j -V 4 -q 2 -lowpass 17 -b 128
Скриншоты:



Шерлок Холмс: Ночной террор / Terror by Night (1946) BDRip
Русское название: Шерлок Холмс: Ночной террор
Оригинальное название: Terror by Night
Год выпуска: 1946
Страна: США
Жанр: триллер, детектив
Кинокомпания: Universal Pictures

Описание фильма: Холмс нанят Роландом Карстэрсом, чтобы предотвратить воровство Звезды Родезии, огромного алмаза, принадлежащего матери Карстэрса, Леди Маргарет. Догадываясь, что алмаз будет украден в поезде по пути от Лондона до Эдинбурга, Холмс ловко подменяет алмаз Леди Маргарет, в то время как заходил в ее купе. Вскоре после этого, Роланд был убит, а поддельный алмаз украден…

Режиссер: Рой Уильям Нилл
Актеры: Бэзил Рэтбоун, Найджел Брюс, Алан Маубрэй, Дэннис Хоуи, Рени Годфри, Фредерик Уорлок, Мэри Форбс, Скелтон Кнаггс, Билли Беван, Джеффри Стил, Гилберт Аллен, Гарри Кординг, Бойд Дэвис, Джералд Хамер, Лейланд Ходжсон, Колин Кенни, Чарльз Найт, Джанет Мердок, Том Пилкингтон, Бобби Висслер…

Продолжительность: 00:59:38
Перевод: Профессиональный многоголосый закадровый
Субтитры: отсутствуют



Дата мировой премьеры: 1 февраля 1946

Видеокодек: DivX
Битрейт видео: ~3083 kbps
Размер кадра: 640x464
Качество видео: BDRip
Аудиокодек: AC3
Битрейт аудио: 2 ch, ~128.00 kbps
General
Complete name : sh.13.shErlOck.hOlmEs.tErrOr.bY.nigHt.1946.BDRip.avi
Format : AVI
Format/Info : Audio Video Interleave
File size : 1.34 GiB
Duration : 59mn 38s
Overall bit rate : 3 221 Kbps
Writing application : FairUse Wizard
Writing library : The best and REALLY easy backup tool

Video
ID : 0
Format : MPEG-4 Visual
Format settings, BVOP : 1
Format settings, QPel : No
Format settings, GMC : No warppoints
Format settings, Matrix : Default (MPEG)
Muxing mode : Packed bitstream
Codec ID : DX50
Codec ID/Hint : DivX 5
Duration : 59mn 38s
Bit rate : 3 083 Kbps
Width : 640 pixels
Height : 464 pixels
Display aspect ratio : 1.379
Frame rate : 23.976 fps
Color space : YUV
Chroma subsampling : 4:2:0
Bit depth : 8 bits
Scan type : Progressive
Compression mode : Lossy
Bits/(Pixel*Frame) : 0.433
Stream size : 1.28 GiB (96%)
Writing library : DivX 5.2.1 (DrDivX 106) (UTC 2004-09-08)

Audio
ID : 1
Format : MPEG Audio
Format version : Version 1
Format profile : Layer 3
Mode : Joint stereo
Mode extension : MS Stereo
Codec ID : 55
Codec ID/Hint : MP3
Duration : 59mn 38s
Bit rate mode : Constant
Bit rate : 128 Kbps
Channel(s) : 2 channels
Sampling rate : 48.0 KHz
Compression mode : Lossy
Stream size : 54.6 MiB (4%)
Alignment : Aligned on interleaves
Interleave, duration : 42 ms (1.00 video frame)
Interleave, preload duration : 504 ms
Writing library : LAME3.97
Encoding settings : -m j -V 4 -q 2 -lowpass 17 -b 128
Скриншоты:



Шерлок Холмс: Прелюдия к убийству / Dressed to Kill (1946) BDRip
Русское название: Шерлок Холмс: Прелюдия к убийству
Оригинальное название: Dressed to Kill
Год выпуска: 1946
Страна: США
Жанр: триллер, драма, криминал, детектив
Кинокомпания: Legend Films, Universal Pictures

Описание фильма: Сидящий в Дартмурской тюрьме вор скрывает местоположение украденных и спрятанных в музыкальных шкатулках печатных пластин Государственного банка Англии. Когда начинаются убийства невинных покупателей шкатулок, Холмс и Ватсон приступают к расследованию…

Режиссер: Рой Уильям Нилл
Актеры: Бэзил Рэтбоун, Найджел Брюс, Патриция Морисон, Эдмунд Бреон, Фредерик Уорлок, Карл Хаборд, Патриция Камерон, Холмс Херберт, Гарри Кординг, Лейланд Ходжсон, Мэри Гордон, Йен Вульф, Фрэнк Бэйкер, Гай Беллис, Уилсон Бендж, Марджори Беннетт, Тед Биллингс, Лиллиэн Бронсон, Том Диллон, Топси Глин, Чарли Холл, Олаф Хайттен, Бойд Ирвин, Тайни Джонс, Гай Кингсфорд, Уоллес Скотт, Анита Шарп-Болстер, Сэлли Шеперд…

Продолжительность: 01:11:50
Перевод: Профессиональный многоголосый закадровый
Субтитры: отсутствуют



Дата мировой премьеры: 24 мая 1946

Видеокодек: DivX
Битрейт видео: ~2751 kbps
Размер кадра: 640x464
Качество видео: BDRip
Аудиокодек: AC3
Битрейт аудио: 2 ch, ~128.00 kbps
General
Complete name : sh.14.shErlOck.hOlmEs.drEssEed.tO.kilL.1946.BDRip.avi
Format : AVI
Format/Info : Audio Video Interleave
File size : 1.45 GiB
Duration : 1h 11mn
Overall bit rate : 2 889 Kbps
Writing application : FairUse Wizard
Writing library : The best and REALLY easy backup tool

Video
ID : 0
Format : MPEG-4 Visual
Format settings, BVOP : 1
Format settings, QPel : No
Format settings, GMC : No warppoints
Format settings, Matrix : Default (MPEG)
Muxing mode : Packed bitstream
Codec ID : DX50
Codec ID/Hint : DivX 5
Duration : 1h 11mn
Bit rate : 2 752 Kbps
Width : 640 pixels
Height : 464 pixels
Display aspect ratio : 1.379
Frame rate : 23.976 fps
Color space : YUV
Chroma subsampling : 4:2:0
Bit depth : 8 bits
Scan type : Progressive
Compression mode : Lossy
Bits/(Pixel*Frame) : 0.387
Stream size : 1.38 GiB (95%)
Writing library : DivX 5.2.1 (DrDivX 106) (UTC 2004-09-08)

Audio
ID : 1
Format : MPEG Audio
Format version : Version 1
Format profile : Layer 3
Mode : Joint stereo
Mode extension : MS Stereo
Codec ID : 55
Codec ID/Hint : MP3
Duration : 1h 11mn
Bit rate mode : Constant
Bit rate : 128 Kbps
Channel(s) : 2 channels
Sampling rate : 48.0 KHz
Compression mode : Lossy
Stream size : 65.8 MiB (4%)
Alignment : Aligned on interleaves
Interleave, duration : 42 ms (1.00 video frame)
Interleave, preload duration : 504 ms
Writing library : LAME3.97
Encoding settings : -m j -V 4 -q 2 -lowpass 17 -b 128
Скриншоты:








Время раздачи: 24/7 - до первых скачавших
[NNM-Club.ru].shErlOck.hOlmEs.thE.cOmplEtE.cOllEctiOn.1939-1946.BDRip.torrent
 Торрент: Платиновая раздача  Зарегистрирован
 
Примагнититься
Free Leech
Скачать
97,8 KB
 Зарегистрирован:   09 Мар 2012 21:36:42
 Размер:   19,2 GB  (
 Рейтинг:   4,7 (Голосов: 88)
 Поблагодарили:   245
 Проверка:   Оформление проверено модератором 10 Мар 2012 00:13:08
Как cкачать  ·  Как раздать  ·  Правильно оформить  ·  Поднять ратио!  
пашуля

Стаж: 4 года 4 месяцa
Сообщений: 31
Ratio: 1,716
89.36%
russia.gif

Сообщение 11 Мар 2012 11:38:04  Заголовок сообщения: Ответить с цитатой

а советский всё равно лучше )
phula


Стаж: 3 года 8 месяцев
Сообщений: 206
Ratio: 47,122
Поблагодарили: 2231
100%
Откуда: LV
latvia.gif

Сообщение 11 Мар 2012 11:39:33  Заголовок сообщения: Ответить с цитатой

Даже сами англичане в свое время признали,что советский вариант экранизации лучше и предпочтительней других.
qazwsx2006
Меценат
 

Стаж: 7 лет 1 месяц
Сообщений: 129
Ratio: 1,03
Поблагодарили: 321
2.43%

Сообщение 11 Мар 2012 15:42:11  Заголовок сообщения: Ответить с цитатой

В данной серии сподвижник Холмса как-то не интеллигентный... мешковатый тип... В русской экранизации - совсем другое дело!
Serik Bekov


Стаж: 4 года 5 месяцев
Сообщений: 370
Ratio: 6,06
100%
Откуда: Алматы (Темиртау)
kazakhstan.gif

Сообщение 11 Мар 2012 15:59:30  Заголовок сообщения: Ответить с цитатой

Ливанов из рук королевы получил орден
kovalaris

Стаж: 2 года 7 месяцев
Сообщений: 1
Ratio: 0,126
0%

Сообщение 11 Мар 2012 18:55:58  Заголовок сообщения: Ответить с цитатой

phula писал(а): Перейти к сообщению
Даже сами англичане в свое время признали,что советский вариант экранизации лучше и предпочтительней других.

Прежде чем пользоваться непроверенной информацией, неплохо бы почитать первоисточники, а не русскую Википедию).
Лучший Холмс на континенте - это всего лишь лучший Холмс из европейских экранизаций. Понятное дело, что Британские острова и Американский континент в это определение не входит. И как много вы знаете европейских экранизаций среди которых наша лучшая?)))
Эх, информацию-то надо читать буквально, а не то, что нам лично хочется.

Добавлено спустя 1 минуту 39 секунд:

Serik Bekov писал(а): Перейти к сообщению
Ливанов из рук королевы получил орден

Да, но за воплощение образа англичанина на иностранном языке. Отнюдь не за лучшего Холмса, как нам приятнее думать ))
m_pard


Стаж: 4 года 2 месяцa
Сообщений: 1
Ratio: 7,668
0%

Сообщение 11 Мар 2012 19:51:21  Заголовок сообщения: Ответить с цитатой

Шерлок Холмс во всём мире ассоциируется прежде всего с Бэзилом Рэтбоуном - жёстким и хладнокровным - и лишь недавние экранизации добавили ему альтернативу (Роберт Дауни младший, Бенедикт Камбербэтч).

Что касается Ливанова, то он получил дежурный орден - таких ежегодно вручают десятками всем тем, кто популяризирует Англию и её культуру в мире - из рук британского посла. Возможно, посол и сказал ему какую-нибудь вежливую фразу про его персонажа - кто знает? - но ни королева, ни англичане, ни весь мир (за исключением нескольких бывших соцстран) наш сериал просто не видели. И ливановский Холмс (слишком приторный и мягкотелый) даже не входит в 50 лучших исполнителей Холмса в мире.
Cupola

Стаж: 4 года 9 месяцев
Сообщений: 49
Ratio: 1,847
17.48%
uzbekistan.gif

Сообщение 11 Мар 2012 23:19:05  Заголовок сообщения: Ответить с цитатой

Оригинальной дорожки нет?
skalop

Стаж: 5 лет
Сообщений: 77
Ratio: 2,367
84.4%
russia.gif

Сообщение 12 Мар 2012 19:39:24  Заголовок сообщения: Ответить с цитатой

этих экронизаций море. лично я смотрел 4-5 . И, смею заметить, наша версия во многом лучше многих из них. мое личное мнение.(имею право на него) кто кому чего давал - меня меньше всего волнует. Данный ш.х. отнють не идеален по сравнению с другими.
p.s. у каждого читавшего конан дойля он свой!

Добавлено спустя 9 минут 36 секунд:

тем более вранье не по конан дойлю сплош и рядом. написал средней руки, (а то и вообще дер...ый) рассказишка, обозвал героя ш.х. и думай - гадай зритель "...какая экранизация лучше?" по моему все дрянь что не по автору.
kastet

Стаж: 4 года 6 месяцев
Сообщений: 245
Ratio: 1,113
28.9%
ussr.gif

Сообщение 04 Июл 2012 21:46:41  Заголовок сообщения: Ответить с цитатой

Пасиба браток! интересная трактовка рассказов...
taurus1965


Стаж: 2 года 5 месяцев
Сообщений: 28
Ratio: 41,08
100%
ukraine.gif

Сообщение 14 Июл 2012 23:19:49  Заголовок сообщения: Ответить с цитатой

Этот сериал вообще нельзя сравнивать с советским. Советский - это великолепная, очень старательная и остроумная экранизация произведений Конан Дойля. Здесь же - либо фильмы по мотивам его книг, либо вообще с оригинальными сюжетами, не имеющими к Конан Дойлю никакого отношения (кроме главных персонажей).
XErmon

Стаж: 2 года 3 месяцa
Сообщений: 19
Ratio: 2,351
48.28%

Сообщение 20 Июл 2012 03:08:06  Заголовок сообщения: Ответить с цитатой

Но всё же, огромное спасибо автору за проделаную работу.
gotham2012


Стаж: 2 года 3 месяцa
Сообщений: 540
Ratio: 3,702
100%
antiguabarbuda.gif

Сообщение 20 Ноя 2013 20:44:08  Заголовок сообщения: Ответить с цитатой

kovalaris, m_pard: абсолютно верно. Но мифы более приятны.
MrH


Стаж: 1 год 11 месяцев
Сообщений: 566
Ratio: 3398,377
100%

Сообщение 20 Ноя 2013 22:33:35  Заголовок сообщения: Ответить с цитатой

Не подходят Ливанов и Соломин на Холмса и Ватсона. Точнее на советских Холмса и Ватсона, но не на Конан Дойлевских. Вы себе можете представить советского Холмса ширяющегося кокаином, а советского Ватсона ветераном Афгана? Нет? Вот то то же. Советские идеологически выверенные, кастрированые. Ни на мгновение не поверю в байку про "признавших англичан", они ж не дураки и всё видят, максимум из вежливости комплимент могли сказать, типа и в СССР Холмса уважают.

qazwsx2006 писал(а): Перейти к сообщению
В данной серии сподвижник Холмса как-то не интеллигентный... мешковатый тип... В русской экранизации - совсем другое дело!


А советский Ватсон похож на манерного кхм.. гея. Просто тут дело привычки, большинство наших граждан всю жизнь смотрело наши фильмы и уже себе ничего другого не представляют, многие ведь книг не читали и знают Холмса исключительно по фильмам. Самые правильные ИМХО это Дауни Мл и Джуд Лоу.

_________________
Жалюзи висят — а что за ними? Там целый мир, прекрасный и большой. Но я сижу в стенах своей квартиры, Двачую капчу, как и ты, друг мой. (с)
gotham2012


Стаж: 2 года 3 месяцa
Сообщений: 540
Ratio: 3,702
100%
antiguabarbuda.gif

Сообщение 25 Ноя 2013 20:51:15  Заголовок сообщения: Ответить с цитатой

+1000
Показать сообщения:   
Начать новую тему   Ответить на тему    Торрент-трекер NNM-Club -> Классика кино и Фильмы до 90-х -> Зарубежная Классика (HD*Rip/LQ, DVDRip, SATRip, VHSRip) Часовой пояс: GMT + 4
Страницы:  1, 2  След.
Страница 1 из 2