Классический форум-трекер
canvas not supported
Нас вместе: 4 064 241

Йога для малышей / The Baby Yoga (2005) DVDRip


 
 
RSS
Начать новую тему   Ответить на тему    Торрент-трекер NNM-Club -> Видео -> Обучающее Видео для родителей
Автор Сообщение
SirSatana ®
Стаж: 6 лет 9 мес.
Сообщений: 1362
Ratio: 27,479
Поблагодарили: 8294
100%
ukraine.gif
Йога для малышей / The Baby Yoga (2005) DVDRip
Русское название: Йога для малышей
Оригинальное название The Babi Yoga
Год выпуска: 2005
Жанр: Для родителей, Видеоуроки, Развивающий

Перевод: Одноголосый закадровый, профессиональный

Описание фильма:
Этот обучающий фильм включает в себя комплекс упражнений, направленных на стимулирование умственного и психического развития малышки, разработан инструктором по йоге и антропологом Барбарой Фридман.
Йога для малышей использует приёмы классической йоги. Её можно практиковать с первых дней после рождения, или начинать занятия в течение первого года жизни, или даже по истечении 18 месяцев после рожения, но прежде, чем ребёнок начнёт говорить. Если начинать занятия йогой позднее - это уже другая система йоги.
Йога для малышей - самый лёгкий путь единения с Вашим ребёнком, т.к. вам нужен будет постоянный зрительный контакт, нужно будет постоянно разговаривать с ребёнком, вынуждать его реагировать. Вы не просто присматриваете за ребёнком, Вы получаете обратную реакцию. Это уже не "Вы и ребёнок", это "Вы с ребёнком"..

Примечание:Данный видеокурс призначен для людей понимающих в йоге, если вы не делали такого раньше, то лучше делать упражнения под руковводством знающего человека. Не навредите своему ребенку

Продолжительность: 01:25:55
Качество видео: DVDRip


Видеокодек: Xvid
Битрейт видео: ~1433 Кбит/с
Размер кадра: 720х416
Аудиокодек: AC3, 2ch
Битрейт аудио: 192 Кбит/с
General
Complete name : F:\Yoga dlya malyishey.avi
Format : AVI
Format/Info : Audio Video Interleave
File size : 1 003 MiB
Duration : 1h 25mn
Overall bit rate : 1 632 Kbps
Writing application : VirtualDubMod 1.5.4.1 (build 2178/release)
Writing library : VirtualDubMod build 2178/release

Video
ID : 0
Format : MPEG-4 Visual
Format profile : Advanced Simple@L5
Format settings, BVOP : 1
Format settings, QPel : No
Format settings, GMC : No warppoints
Format settings, Matrix : Default (H.263)
Muxing mode : Packed bitstream
Codec ID : XVID
Codec ID/Hint : XviD
Duration : 1h 25mn
Bit rate : 1 433 Kbps
Width : 720 pixels
Height : 416 pixels
Display aspect ratio : 16:9
Frame rate : 25.000 fps
Color space : YUV
Chroma subsampling : 4:2:0
Bit depth : 8 bits
Scan type : Progressive
Compression mode : Lossy
Bits/(Pixel*Frame) : 0.191
Stream size : 881 MiB (88%)
Writing library : XviD 1.2.0SMP (UTC 2006-01-08)

Audio
ID : 1
Format : AC-3
Format/Info : Audio Coding 3
Mode extension : CM (complete main)
Codec ID : 2000
Duration : 1h 25mn
Bit rate mode : Constant
Bit rate : 192 Kbps
Channel(s) : 2 channels
Channel positions : Front: L R
Sampling rate : 48.0 KHz
Bit depth : 16 bits
Compression mode : Lossy
Stream size : 118 MiB (12%)
Alignment : Split accross interleaves
Interleave, duration : 80 ms (2.00 video frames)
Interleave, preload duration : 500 ms
Скриншоты:


Время раздачи: 24/7 - до 5 скачавших, потом по ситуации

Йога для малышей на NNM-Club
[NNM-Club.ru]_Yoga dlya malyishey.avi.torrent
 Торрент: Платиновая раздача  Зарегистрирован
 
Скачать


Примагнититься
 Зарегистрирован:   08 Мар 2012 16:26:48
 Размер:   1003 MB  (
 Рейтинг:   4,6 (Голосов: 18)
 Поблагодарили:   66
 Проверка:   Оформление проверено модератором 08 Мар 2012 16:34:27
Как cкачать  ·  Как раздать  ·  Правильно оформить  ·  Поднять ратио!  
silanty
Стаж: 8 лет 6 мес.
Сообщений: 4
Ratio: 22,481
100%
Это то же самое?
Йога для малышей / The Babi Yoga (2005) DVDRip- Йога для малышей / The Babi Yoga (2005) DVDRip
SirSatana ®
Стаж: 6 лет 9 мес.
Сообщений: 1362
Ratio: 27,479
Поблагодарили: 8294
100%
ukraine.gif
silanty писал(а): Перейти к сообщению
Это то же самое?
Йога для малышей / The Babi Yoga (2005) DVDRip- Йога для малышей / The Babi Yoga (2005) DVDRip

Да но размер другой
silanty
Стаж: 8 лет 6 мес.
Сообщений: 4
Ratio: 22,481
100%
SirSatana писал(а): Перейти к сообщению
silanty писал(а): Перейти к сообщению
Это то же самое?
Йога для малышей / The Babi Yoga (2005) DVDRip- Йога для малышей / The Babi Yoga (2005) DVDRip

Да но размер другой
Действительно, там менее 700 MB.:)
Показать сообщения:   
Начать новую тему   Ответить на тему    Торрент-трекер NNM-Club -> Видео -> Обучающее Видео для родителей Часовой пояс: GMT + 3
Страница 1 из 1