Интеллигентный торрент-трекер
Нас вместе: 3 642 344 | Новости торрент-трекера | Как тут скачивать? | Как раздавать торренты? | Правила оформления

Гангстеры в океане (1991) DVD5 (2 серии из 2)


 
 
RSS
Начать новую тему   Ответить на тему    Торрент-трекер NNM-Club -> Отечественное кино -> Отечественные Фильмы (DVD)
Предыдущая тема :: Следующая тема  
Автор Сообщение
rostik973 ®


Стаж: 4 года 3 месяцa
Сообщений: 802
Ratio: 32,108
Поблагодарили: 37755
100%
Откуда: Киев
ukraine.gif

Сообщение 24 Фев 2012 10:55:54  Заголовок сообщения: Гангстеры в океане (1991) DVD5 (2 серии из 2) Ответить с цитатой

Гангстеры в океане (1991) DVD5 (2 серии из 2)
Полная реставрация изображения и звука
Русское название: Гангстеры в океане
Год выпуска: 1991
Жанр: Боевик, Приключения

Описание фильма:
Советский корабль, везущий руду в Сан-Франциско, увидел горящий в ночи американский сухогруз. Естественно, наши ребята спасли экипаж, а спасенные американцы заявили, что на них напала советская подводная лодка. Вскоре и советское судно было захвачено "филиппинскими" военными. Оказалось, что в руде были спрятаны снаряды и непонятные баллоны, после чего и русские, и американцы были доставлены на какую-то базу.

Режиссер: Степан Пучинян
Актеры: Анна Самохина, Александр Михайлов, Лев Дуров, Петерис Гаудиньш, Армен Джигарханян, Леонид Куравлев, Юрий Катин-Ярцев, Виталий Яковлев, Олег Ли, Далюс Мертинас

Продолжительность: 02:06:54



Видеокодек: MPEG-2
Битрейт видео: ~4588 kb/s
Размер кадра: PAL 4:3 (720x576) VBR
Качество видео: DVD5
Аудио №1: AC3 5.1, 448Kbps - Русский(оригинал)
Аудио №2: AC3, 1, 112Kbps - Русский(оригинал)


Дополнительных материалов:нет
Субтитры: нет
Title: Локальный диск
Size: 4.36 Gb ( 4 571 968 KBytes ) - DVD-5
Enabled regions: 1, 2, 3, 4, 5, 6, 7, 8

VTS_01 :
Play Length:
Video: PAL 4:3 (720x576) VBR

VTS_02 :
Play Length:
Video: PAL 4:3 (720x576) VBR
Audio:
Not specified (Dolby AC3, 6 ch)

VTS_03 :
Play Length: 02:06:54
Video: PAL 4:3 (720x576) VBR
Audio:
Russian (Dolby AC3, 6 ch)
Russian (Dolby AC3, 1 ch)

VTS_04 :
Play Length:
Video: PAL 4:3 (720x576) VBR
Audio:
Russian (Dolby AC3, 2 ch)

VTS_05 :
Play Length:
Video: PAL 4:3 (720x576) VBR
Audio:
Russian (Dolby AC3, 2 ch)

VTS_06 :
Play Length:
Video: PAL 4:3 (720x576) VBR
Audio:
Russian (Dolby AC3, 2 ch)

VTS_07 :
Play Length:
Video: PAL 4:3 (720x576) VBR
Audio:
Russian (Dolby AC3, 2 ch)

VTS_08 :
Play Length:
Video: PAL 4:3 (720x576) VBR
Audio:
Not specified (Dolby AC3, 6 ch)

VTS_09 :
Play Length:
Video: PAL 4:3 (720x576) VBR
Audio:
Russian (Dolby AC3, 2 ch)
Общее
Полное имя : D:\Фильмы\Gansters\VIDEO_TS\VTS_03_1.VOB
Формат : MPEG-PS
Размер файла : 1024 Мбайт
Продолжительность : 27 м.
Режим общего битрейта : Переменный
Общий поток : 5252 Кбит/сек

Видео
Идентификатор : 224 (0xE0)
Формат : MPEG Video
Версия формата : Version 2
Профиль формата : Main@Main
Параметр BVOP формата : Да
Параметр матрицы формата : Выборочная
Продолжительность : 27 м.
Вид битрейта : Переменный
Битрейт : 4588 Кбит/сек
Максимальный битрейт : 6039 Кбит/сек
Ширина : 720 пикселей
Высота : 576 пикселей
Соотношение сторон : 4:3
Частота кадров : 25,000 кадров/сек
Стандарт вещания : PAL
Цветовое пространство : YUV
Субдискретизация насыщенности : 4:2:0
Битовая глубина : 8 бит
Тип развёртки : Чересстрочная
Порядок развёртки : Нижнее поле первое
Метод сжатия : С потерями
Бит/(Пиксели*Кадры) : 0.443
Размер потока : 894 Мбайт (87%)

Аудио #1
Идентификатор : 189 (0xBD)-128 (0x80)
Формат : AC-3
Формат/Информация : Audio Coding 3
Расширение режима : CM (complete main)
Режим смешивания : DVD-Video
Продолжительность : 27 м.
Вид битрейта : Постоянный
Битрейт : 448 Кбит/сек
Каналы : 6 каналов
Расположение каналов : Front: L C R, Side: L R, LFE
Частота : 48,0 КГц
Битовая глубина : 16 бит
Метод сжатия : С потерями
Размер потока : 87,3 Мбайт (9%)

Аудио #2
Идентификатор : 189 (0xBD)-129 (0x81)
Формат : AC-3
Формат/Информация : Audio Coding 3
Расширение режима : CM (complete main)
Режим смешивания : DVD-Video
Продолжительность : 27 м.
Вид битрейта : Постоянный
Битрейт : 112 Кбит/сек
Каналы : 1 канал
Расположение каналов : Front: C
Частота : 48,0 КГц
Битовая глубина : 16 бит
Метод сжатия : С потерями
Размер потока : 21,8 Мбайт (2%)

Меню
Скриншоты:


Время раздачи: С 10:00 до 23:30
[NNM-Club.ru]_Gansters.torrent
 Торрент: Золотая раздача  Зарегистрирован
 


Зарегистрируйтесь и скачайте торрент!
 Зарегистрирован:   24 Фев 2012 10:55:54
 Размер:   4,36 GB  (
 Рейтинг:    (Голосов: 10)
 Поблагодарили:   37
 Проверка:   Оформление проверено модератором 24 Фев 2012 11:51:50
Как cкачать  ·  Как раздать  ·  Правильно оформить  ·  Поднять ратио!  
Показать сообщения:   
Начать новую тему   Ответить на тему    Торрент-трекер NNM-Club -> Отечественное кино -> Отечественные Фильмы (DVD) Часовой пояс: GMT + 4
Страница 1 из 1