Классический форум-трекер
canvas not supported
Нас вместе: 4 088 182

Школа доктора Комаровского (выпуски 101 - 105) [обновляемая] (2012) SATRip


Страницы:   Пред.  1, 2 
 
RSS
Начать новую тему   Ответить на тему    Торрент-трекер NNM-Club -> Видео -> Обучающее Видео для родителей
Автор Сообщение
W.K. ®
Стаж: 7 лет 6 мес.
Сообщений: 637
Ratio: 282,063
Поблагодарили: 22684
100%
ussr.gif
Школа доктора Комаровского (выпуски 101 - 105) [обновляемая] (2012) SATRip
Русское название: Школа доктора Комаровского
Год выпуска: 2012
Производство: Украина/ТВ "Интер"
Жанр: Для родителей, Обучающий, Ток-шоу
Участники: В гостях у доктора Комаровского побывало много узнаваемых, популярных людей.

Описание фильма:
Имя доктора Комаровского многие из нас впервые услышали во время гриппозной лихорадки, когда на фоне всеобщей паники он стал чуть ли не единственным человеком, кто сумел успокоить общественность.Неудивительно, ведь лечением ОРВИ известный харьковский педиатр Евгений Олегович Комаровский занимается без малого 30 лет. А 7 марта 2010 года на "Интере" состоялась премьера его авторской программы "Школа доктора Комаровского". Каждый выпуск посвящен одному из вопросов детского здоровья: правильное питание для ребенка, проблема совместного сна, аллергические реакции и т.д.
Озвученная тема обсуждается с гостями в студии - обыкновенными мамами и папами, бабушками и дедушками, которых тоже волнует эта проблема.



Продолжительность: выпуск ~ 00:27:00
Качество видео: SATRip

Видеокодек: DivX 5
Битрейт видео: ~1000 Кбит/сек
Размер кадра: 704 x 528
Аудиокодек: MP3, 2.0
Битрейт аудио: 128 Кбит/сек
Общее
Полное имя : D:\Downloads\Komarovsky\Комаровский Выпуск 101 от 19.02.2012 Мифы о вакцинации.avi
Формат : AVI
Формат/Информация : Audio Video Interleave
Размер файла : 291 Мбайт
Продолжительность : 36 м.
Общий поток : 1123 Кбит/сек
Библиотека кодирования : VirtualDub build 24463/release

Видео
Идентификатор : 0
Формат : MPEG-4 Visual
Параметр BVOP формата : 1
Параметр QPel формата : Нет
Параметр GMC формата : Без точки перехода
Параметр матрицы формата : Default (H.263)
Режим смешивания : Сжатый битовый поток
Идентификатор кодека : DX50
Идентификатор кодека/Подсказка : DivX 5
Продолжительность : 36 м.
Битрейт : 985 Кбит/сек
Ширина : 704 пикс.
Высота : 528 пикс.
Соотношение сторон : 4:3
Частота кадров : 25,000 кадр/сек
Цветовое пространство : YUV
Подвыборка цветности : 4:2:0
Битовая глубина : 8 бит
Тип развёртки : Прогрессивная
Метод сжатия : С потерями
Бит/(Пиксели*Кадры) : 0.106
Размер потока : 256 Мбайт (88%)
Библиотека кодирования : DivX 6.8.5 (UTC 2009-08-20)

Аудио
Идентификатор : 1
Формат : MPEG Audio
Версия формата : Version 1
Профиль формата : Layer 3
Режим : Joint stereo
Расширение режима : MS Stereo
Идентификатор кодека : 55
Идентификатор кодека/Подсказка : MP3
Продолжительность : 36 м.
Вид битрейта : Постоянный
Битрейт : 128 Кбит/сек
Каналы : 2 канала
Частота : 44,1 КГц
Метод сжатия : С потерями
Размер потока : 33,1 Мбайт (11%)
Выравнивание : Разделение по промежуткам
Продолжительность промежутка : 40 мс. (1,00 видеокадр)
Время предзагрузки промежутка : 501 ms

Видеокодек: DivX 5
Битрейт видео: ~985 Кбит/сек
Размер кадра: 704 x 528
Аудиокодек: MP3, 2.0
Битрейт аудио: 128 Кбит/сек
Общее
Полное имя : D:\Downloads\Komarovsky-2\Комаровский Выпуск 102 от 26.02.2012 Про иммунитет.avi
Формат : AVI
Формат/Информация : Audio Video Interleave
Размер файла : 291 Мбайт
Продолжительность : 36 м.
Общий поток : 1123 Кбит/сек
Библиотека кодирования : VirtualDub build 24463/release

Видео
Идентификатор : 0
Формат : MPEG-4 Visual
Параметр BVOP формата : 1
Параметр QPel формата : Нет
Параметр GMC формата : Без точки перехода
Параметр матрицы формата : Default (H.263)
Режим смешивания : Сжатый битовый поток
Идентификатор кодека : DX50
Идентификатор кодека/Подсказка : DivX 5
Продолжительность : 36 м.
Битрейт : 985 Кбит/сек
Ширина : 704 пикс.
Высота : 528 пикс.
Соотношение сторон : 4:3
Частота кадров : 25,000 кадр/сек
Цветовое пространство : YUV
Подвыборка цветности : 4:2:0
Битовая глубина : 8 бит
Тип развёртки : Прогрессивная
Метод сжатия : С потерями
Бит/(Пиксели*Кадры) : 0.106
Размер потока : 255 Мбайт (88%)
Библиотека кодирования : DivX 6.8.5 (UTC 2009-08-20)

Аудио
Идентификатор : 1
Формат : MPEG Audio
Версия формата : Version 1
Профиль формата : Layer 3
Режим : Joint stereo
Расширение режима : MS Stereo
Идентификатор кодека : 55
Идентификатор кодека/Подсказка : MP3
Продолжительность : 36 м.
Вид битрейта : Постоянный
Битрейт : 128 Кбит/сек
Каналы : 2 канала
Частота : 44,1 КГц
Метод сжатия : С потерями
Размер потока : 33,1 Мбайт (11%)
Выравнивание : Разделение по промежуткам
Продолжительность промежутка : 40 мс. (1,00 видеокадр)
Время предзагрузки промежутка : 501 ms


Видеокодек: DivX 5
Битрейт видео: ~955 Кбит/сек
Размер кадра: 704 x 528
Аудиокодек: MP3, 2.0
Битрейт аудио: 128 Кбит/сек
Общее
Полное имя : D:\Downloads\Komarovsky-2\Комаровский Выпуск 103 от 04.03.2012 Стрептококк.avi
Формат : AVI
Формат/Информация : Audio Video Interleave
Размер файла : 291 Мбайт
Продолжительность : 36 м.
Общий поток : 1123 Кбит/сек
Библиотека кодирования : VirtualDub build 24463/release

Видео
Идентификатор : 0
Формат : MPEG-4 Visual
Параметр BVOP формата : 1
Параметр QPel формата : Нет
Параметр GMC формата : Без точки перехода
Параметр матрицы формата : Default (H.263)
Режим смешивания : Сжатый битовый поток
Идентификатор кодека : DX50
Идентификатор кодека/Подсказка : DivX 5
Продолжительность : 36 м.
Битрейт : 995 Кбит/сек
Ширина : 704 пикс.
Высота : 528 пикс.
Соотношение сторон : 4:3
Частота кадров : 25,000 кадр/сек
Цветовое пространство : YUV
Подвыборка цветности : 4:2:0
Битовая глубина : 8 бит
Тип развёртки : Прогрессивная
Метод сжатия : С потерями
Бит/(Пиксели*Кадры) : 0.106
Размер потока : 255 Мбайт (88%)
Библиотека кодирования : DivX 6.8.5 (UTC 2009-08-20)

Аудио
Идентификатор : 1
Формат : MPEG Audio
Версия формата : Version 1
Профиль формата : Layer 3
Режим : Joint stereo
Расширение режима : MS Stereo
Идентификатор кодека : 55
Идентификатор кодека/Подсказка : MP3
Продолжительность : 36 м.
Вид битрейта : Постоянный
Битрейт : 128 Кбит/сек
Каналы : 2 канала
Частота : 44,1 КГц
Метод сжатия : С потерями
Размер потока : 33,1 Мбайт (11%)
Выравнивание : Разделение по промежуткам
Продолжительность промежутка : 40 мс. (1,00 видеокадр)
Время предзагрузки промежутка : 501 ms


Видеокодек: DivX 5
Битрейт видео: ~990 Кбит/сек
Размер кадра: 704 x 528
Аудиокодек: MP3, 2.0
Битрейт аудио: 128 Кбит/сек
Общее
Полное имя : D:\Downloads\Komarovsky-2\Комаровский Выпуск 104 от 11.03.2012 Раннее развитие.avi
Формат : AVI
Формат/Информация : Audio Video Interleave
Размер файла : 291 Мбайт
Продолжительность : 36 м.
Общий поток : 1128 Кбит/сек
Библиотека кодирования : VirtualDub build 24463/release

Видео
Идентификатор : 0
Формат : MPEG-4 Visual
Параметр BVOP формата : 1
Параметр QPel формата : Нет
Параметр GMC формата : Без точки перехода
Параметр матрицы формата : Default (H.263)
Режим смешивания : Сжатый битовый поток
Идентификатор кодека : DX50
Идентификатор кодека/Подсказка : DivX 5
Продолжительность : 36 м.
Битрейт : 990 Кбит/сек
Ширина : 704 пикселя
Высота : 528 пикселей
Соотношение сторон : 4:3
Частота кадров : 25,000 кадров/сек
Цветовое пространство : YUV
Субдискретизация насыщенности : 4:2:0
Битовая глубина : 8 бит
Тип развёртки : Прогрессивная
Метод сжатия : С потерями
Бит/(Пиксели*Кадры) : 0.107
Размер потока : 256 Мбайт (88%)
Библиотека кодирования : DivX 6.8.5 (UTC 2009-08-20)

Аудио
Идентификатор : 1
Формат : MPEG Audio
Версия формата : Version 1
Профиль формата : Layer 3
Режим : Joint stereo
Расширение режима : MS Stereo
Идентификатор кодека : 55
Идентификатор кодека/Подсказка : MP3
Продолжительность : 36 м.
Вид битрейта : Постоянный
Битрейт : 128 Кбит/сек
Каналы : 2 канала
Частота : 44,1 КГц
Метод сжатия : С потерями
Размер потока : 33,0 Мбайт (11%)
Выравнивание : Разделение по промежуткам
Продолжительность промежутка : 40 мс. (1,00 видеокадр)
Время предзагрузки промежутка : 501 мс.


Видеокодек: DivX 5
Битрейт видео: ~1000 Кбит/сек
Размер кадра: 704 x 528
Аудиокодек: MP3, 2.0
Битрейт аудио: 128 Кбит/сек
Общее
Полное имя : D:\Downloads\Komarovsky-2\Комаровский Выпуск 105 от 18.03.2012 Желтуха.avi
Формат : AVI
Формат/Информация : Audio Video Interleave
Размер файла : 291 Мбайт
Продолжительность : 36 м.
Общий поток : 1128 Кбит/сек
Библиотека кодирования : VirtualDub build 24463/release

Видео
Идентификатор : 0
Формат : MPEG-4 Visual
Параметр BVOP формата : 1
Параметр QPel формата : Нет
Параметр GMC формата : Без точки перехода
Параметр матрицы формата : Default (H.263)
Режим смешивания : Сжатый битовый поток
Идентификатор кодека : DX50
Идентификатор кодека/Подсказка : DivX 5
Продолжительность : 36 м.
Битрейт : 1000 Кбит/сек
Ширина : 704 пикселя
Высота : 528 пикселей
Соотношение сторон : 4:3
Частота кадров : 25,000 кадров/сек
Цветовое пространство : YUV
Субдискретизация насыщенности : 4:2:0
Битовая глубина : 8 бит
Тип развёртки : Прогрессивная
Метод сжатия : С потерями
Бит/(Пиксели*Кадры) : 0.107
Размер потока : 256 Мбайт (88%)
Библиотека кодирования : DivX 6.8.5 (UTC 2009-08-20)

Аудио
Идентификатор : 1
Формат : MPEG Audio
Версия формата : Version 1
Профиль формата : Layer 3
Режим : Joint stereo
Расширение режима : MS Stereo
Идентификатор кодека : 55
Идентификатор кодека/Подсказка : MP3
Продолжительность : 36 м.
Вид битрейта : Постоянный
Битрейт : 128 Кбит/сек
Каналы : 2 канала
Частота : 44,1 КГц
Метод сжатия : С потерями
Размер потока : 33,0 Мбайт (11%)
Выравнивание : Разделение по промежуткам
Продолжительность промежутка : 40 мс. (1,00 видеокадр)
Время предзагрузки промежутка : 501 мс.
При каждом добавлении создётся новый торрент. Чтобы начать докачку новой серии, пользователям необходимо сделать следующее:
1) остановить скачивание,
2) удалить старый торрент у себя из клиента (старые серии удалять не надо),
3) скачать новый торрент и запустить его у себя в клиенте вместо старого, при этом указать клиенту путь в старую папку куда и должно происходить скачивание новых серий.

Ваш клиент при этом должен произвести хеширование (проверку) старой папки (если не производит сам - помогите ему сделать это), и будет докачивать только те серии которых у вас ещё нет. Старые серии при этом не удаляются, а продолжают раздаваться!


Время раздачи: с 23:00 до 07:00, днем по мере возможности
Приятного просмотра! :пока:
Начало. 100 серий Школа доктора Комаровского (выпуски 1 - 100) (2010/11/12)[H.264] SATRip

Школа доктора Комаровского на NNM-club
[NNM-Club.ru]_Komarovsky-2.torrent
 Торрент: Платиновая раздача  Зарегистрирован
 
Скачать


 Зарегистрирован:   19 Мар 2012 15:45:38
 Размер:   1,42 GB  (
 Рейтинг:   4,3 (Голосов: 33)
 Поблагодарили:   119
 Проверка:   Оформление проверено модератором 19 Мар 2012 19:26:11
Как cкачать  ·  Как раздать  ·  Правильно оформить  ·  Поднять ратио!  

_________________
fluorescent
Стаж: 8 лет 5 мес.
Сообщений: 53
Ratio: 388,193
Поблагодарили: 813
100%
russia.gif
SaniekDD
а новая раздача будет? серий-то много уже вышло..
я сам могу раздавать 24/7, только вот у меня сейчас канал на upload чахлый - 512 кбит/с всего :(
SaniekDD
Стаж: 8 лет 4 мес.
Сообщений: 59
Ratio: 3,157
Раздал: 788 GB
100%
Откуда: Екатеринослав
ukraine.gif
я делаю рип каждые выходные. автор данной раздачи взял на себя релиз)))) а что будет дальше я не знаю)

_________________

Перед баном за скорость спроси от куда) у меня гигабит
NaMoRZA
Стаж: 11 лет 8 мес.
Сообщений: 160
Ratio: 16,845
Раздал: 68,14 TB
Поблагодарили: 5696
43.76%
fluorescent
Школа доктора Комаровского (выпуски 106 - 110) (2012) SATRemux / DVB picНазвание: Школа доктора Комаровского
fluorescent
Стаж: 8 лет 5 мес.
Сообщений: 53
Ratio: 388,193
Поблагодарили: 813
100%
russia.gif
NaMoRZA, Спасибо!
Показать сообщения:   
Начать новую тему   Ответить на тему    Торрент-трекер NNM-Club -> Видео -> Обучающее Видео для родителей Часовой пояс: GMT + 3
Страницы:   Пред.  1, 2
Страница 2 из 2