Классический форум-трекер
canvas not supported
Нас вместе: 4 071 354
loading...

Иван Царевич и Серый Волк (2011) [1080p] BDRip 3D [Горизонтальная анаморфная стереопара]


 
 
RSS
Начать новую тему   Ответить на тему    Торрент-трекер NNM-Club -> Мультфильмы -> Отечественные Мультфильмы (HD, UHD, UHD-LQ, DVD, Сборники)
Автор Сообщение
Morbid Angel ®
Стаж: 8 лет 10 мес.
Сообщений: 324
Ratio: 1721,694
Раздал: 133,9 TB
Поблагодарили: 13461
100%
logo.gif
Иван Царевич и Серый Волк (2011) BDRip 3D
Русское название: Иван Царевич и Серый Волк
Год выпуска: 2011
Жанр: мультфильм, комедия, семейный
Производство: Россия, "Анимационная студия Мельница"
Описание фильма:
Увлекательная история от создателей богатырской трилогии, в которой героев русских народных сказок ждут новые приключения, опасности и забавные ситуации...
Режиссер: Владимир Торопчин
Актеры: Никита Ефремов, Иван Охлобыстин, Артур Смольянинов, Лия Ахеджакова, Кристина Асмус, Виктор Сухоруков, Сергей Гармаш, Михаил Боярский
Рейтинги:
Дата мировой премьеры: 29 декабря 2011
Дата премьеры (РФ): 29 декабря 2011, «Наше Кино»
Релиз на Blu-Ray (РФ): 7 февраля 2012, «Lizard Cinema Trade»
Перевод: Оригинал (лицензия)
Субтитры: Нет
Продолжительность: 01:26:03
Контейнер: MKV
Качество видео: BDRip 3D
Формат 3D: Half SideBySide / Горизонтальная анаморфная стереопара
Порядок ракурсов Левый первый
Видеокодек: MPEG-4 AVC / H.264
Битрейт видео: ~ 3574 kbps
Размер кадра: 1920x1080p
Аудиокодек: AC3
Аудио: Русский Dolby Digital Audio / 5.1 / 48 kHz / 448 kbps
Общее
Уникальный идентификатор : 173406964594610422209820284515721791586 (0x8274F770FCDB08089BEA7A955CBDC862)
Полное имя : G:\My Rip\Ivan Tsarevich and the Grey Wolf.mkv
Формат : Matroska
Версия формата : Version 2
Размер файла : 2,47 Гбайт
Продолжительность : 1 ч. 26 м.
Общий поток : 4104 Кбит/сек
Название фильма : Ivan Tsarevich and the Grey Wolf_3D www.nnm-club.me
Дата кодирования : UTC 2012-02-16 07:51:20
Программа кодирования : mkvmerge v4.8.0 ('I Got The...') сборка от May 24 2011 03:12:58
Библиотека кодирования : libebml v1.2.0 + libmatroska v1.1.0

Видео
Идентификатор : 1
Формат : AVC
Формат/Информация : Advanced Video Codec
Профиль формата : High@L4.0
Параметр CABAC формата : Да
Параметр ReFrames формата : 4 кадра
Идентификатор кодека : V_MPEG4/ISO/AVC
Продолжительность : 1 ч. 26 м.
Битрейт : 3574 Кбит/сек
Ширина : 1920 пикселей
Высота : 1080 пикселей
Соотношение сторон : 16:9
Частота кадров : 23,976 кадра/сек
Цветовое пространство : YUV
Субдискретизация насыщенности : 4:2:0
Битовая глубина : 8 бит
Тип развёртки : Прогрессивная
Бит/(Пиксели*Кадры) : 0.072
Размер потока : 2,15 Гбайт (87%)
Заголовок : Ivan Tsarevich and the Grey Wolf_3D [Morbid Angel®]
Библиотека кодирования : x264 core 116 r2074 2641b9e
Настройки программы : cabac=1 / ref=4 / deblock=1:-2:-2 / analyse=0x3:0x113 / me=umh / subme=8 / psy=1 / psy_rd=1.00:0.15 / mixed_ref=1 / me_range=16 / chroma_me=1 / trellis=2 / 8x8dct=1 / cqm=0 / deadzone=21,11 / fast_pskip=1 / chroma_qp_offset=-3 / threads=6 / sliced_threads=0 / nr=0 / decimate=1 / interlaced=0 / bluray_compat=0 / constrained_intra=0 / bframes=6 / b_pyramid=0 / b_adapt=2 / b_bias=0 / direct=3 / weightb=1 / open_gop=0 / weightp=2 / keyint=250 / keyint_min=23 / scenecut=40 / intra_refresh=0 / rc_lookahead=40 / rc=crf / mbtree=1 / crf=18.0 / qcomp=0.60 / qpmin=10 / qpmax=69 / qpstep=4 / ip_ratio=1.40 / aq=1:1.00
Язык : English
Default : Да
Forced : Нет

Аудио
Идентификатор : 2
Формат : AC-3
Формат/Информация : Audio Coding 3
Расширение режима : CM (complete main)
Идентификатор кодека : A_AC3
Продолжительность : 1 ч. 26 м.
Вид битрейта : Постоянный
Битрейт : 448 Кбит/сек
Каналы : 6 каналов
Расположение каналов : Front: L C R, Side: L R, LFE
Частота : 48,0 КГц
Битовая глубина : 16 бит
Метод сжатия : С потерями
Задержка видео : 100 мс.
Размер потока : 276 Мбайт (11%)
Язык : Russian
Default : Да
Forced : Нет

Меню
00:00:00.000 : en:00:00:00.000
00:08:25.088 : en:00:08:25.088
00:15:22.213 : en:00:15:22.213
00:22:22.591 : en:00:22:22.591
00:29:26.098 : en:00:29:26.098
00:36:14.672 : en:00:36:14.672
00:45:18.090 : en:00:45:18.090
00:53:35.963 : en:00:53:35.963
01:00:50.605 : en:01:00:50.605
01:06:58.306 : en:01:06:58.306
01:14:15.409 : en:01:14:15.409
01:21:14.828 : en:01:21:14.828

Скриншоты:


Время раздачи: 24 / 7- круглосуточно
[NNM-Club.ru]_Ivan Tsarevich and the Grey Wolf.mkv.torrent
 Торрент: Платиновая раздача  Зарегистрирован
 
Скачать


Примагнититься
 Зарегистрирован:   16 Фев 2012 18:11:17
 Размер:   2,47 GB  (
 Рейтинг:   4,6 (Голосов: 47)
 Поблагодарили:   213
 Проверка:   Оформление проверено модератором 17 Фев 2012 06:31:37
Как cкачать  ·  Как раздать  ·  Правильно оформить  ·  Поднять ратио!  
seiv_iv
Стаж: 8 лет 10 мес.
Сообщений: 6
Ratio: 4,236
5.17%
Это для активных или для пассивных очков?
abozoff
Стаж: 8 лет 11 мес.
Сообщений: 150
Ratio: 9,947
Раздал: 20,37 TB
100%
albania.gif
на Рhiliрs 7000 series идет. активность - пассивность очков влияет между экраном и зрителем, ergo, зависит от экрана.ИМХО\ПМСМ.

Добавлено спустя 4 минуты 5 секунд:

вдогонку. Очки на филипсе пассивные поляризационные.
Объемное изображение. О методах получения и просмотра

_________________
все слетело. чистый винт - чистая совесть
дима71
Стаж: 7 лет 9 мес.
Сообщений: 127
Ratio: 89,036
Поблагодарили: 17641
100%
russia.gif
В 3d заметны артефакты! Смотреть не смог.
Morbid Angel ®
Стаж: 8 лет 10 мес.
Сообщений: 324
Ratio: 1721,694
Раздал: 133,9 TB
Поблагодарили: 13461
100%
logo.gif
дима71 писал(а):
В 3d заметны артефакты! Смотреть не смог.

Уточните, пожалуйста, на какой минуте конкретно.
Показать сообщения:   
Начать новую тему   Ответить на тему    Торрент-трекер NNM-Club -> Мультфильмы -> Отечественные Мультфильмы (HD, UHD, UHD-LQ, DVD, Сборники) Часовой пояс: GMT + 3
Страница 1 из 1