Интеллигентный торрент-трекер
Нас вместе: 3 748 903 | Новости торрент-трекера | Как тут скачивать? | Как раздавать торренты? | Правила оформления

Скачать бесплатно торрент Adam Skorupa, Pawel Blaszczak & VA - The Witcher / Ведьмак (2007) [FLAC|Lossless]<instrumental, celtic, dark ambient, metal> torrent download


 
 
RSS
Начать новую тему   Ответить на тему    Торрент-трекер NNM-Club -> Other Styles -> OST (Lossless)
Предыдущая тема :: Следующая тема 
Автор Сообщение
StirlitzZ ®
Стаж: 4 года 4 мес.
Сообщений: 220
Ratio: 20,989
Раздал: 2,196 TB
Поблагодарили: 3460
91.5%
russia.gif
Сообщение 11 Фев 2012 23:22:55  Заголовок сообщения: Adam Skorupa, Pawel Blaszczak & VA - The Witcher / Ведьмак (2007) [FLAC|Lossless]<instrumental, celtic, dark ambi Ответить с цитатой


The Witcher - Collector's Edition Soundtrack



Год: 2007 || Жанр: instrumental, celtic, dark ambient, metal || Продолжительность: 02:15:01 || Композитор: Adam Skorupa, Pawel Blaszczak
Страна-производитель диска: Россия || Аудио кодек: FLAC (*.flac) || Тип рипа: tracks+.cue || Битрейт аудио: lossless

Продолжительность: 1:13:26

Кодек: FLAC
Битрейт: Lossless
Тип рипа: tracks+.cue

Трек лист:
01. Dusk of a Northern Kingdom (4:33)
02. A Wolf's Demise (2:09)
03. River of Life (5:19)
04. Mighty (1:08)
05. Dead City (8:02)
06. Last Battle (1:12)
07. Elaine Ettariel (1:13)
08. To Arms (Rebellion) (1:22)
09. The Princess Striga (6:50)
10. Returning to the Fortress (1:28)
11. Evening in the Tavern (0:55)
12. Peaceful Moments (5:08)
13. An Ominous Place (5:10)
14. Temerian Castle Theme (0:47)
15. The Order (3:51)
16. Night Approaches (1:06)
17. The Grand Master Revealed (1:26)
18. Withered Roses (1:14)
19. Prepare for Battle! (1:06)
20. Do You Remember? (1:30)
21. The Lesser of Two Evils (1:53)
22. Catch Me If You Can (0:22)
23. Tavern at the End of World (1:23)
24. The Dike (7:02)
25. Twilight (0:37)
26. A Matter of Conscience (1:26)
27. Leo's Farewell (1:44)
28. Silver Sword (1:31)
29. Kingdom & Betrayal (1:48)
Код:

Exact Audio Copy V1.0 beta 1 from 15. November 2010

EAC extraction logfile from 12. February 2011, 0:31

P.BVaszczak and A.Skorupa / The Witcher Soundtrack

Used drive  : HL-DT-STDVDRAM GSA-H10N   Adapter: 5  ID: 0

Read mode               : Secure
Utilize accurate stream : Yes
Defeat audio cache      : Yes
Make use of C2 pointers : No

Read offset correction                      : 667
Overread into Lead-In and Lead-Out          : No
Fill up missing offset samples with silence : Yes
Delete leading and trailing silent blocks   : No
Null samples used in CRC calculations       : Yes
Used interface                              : Native Win32 interface for Win NT & 2000
Gap handling                                : Appended to previous track

Used output format              : User Defined Encoder
Selected bitrate                : 768 kBit/s
Quality                         : High
Add ID3 tag                     : No
Command line compressor         : C:\Program Files\Exact Audio Copy\FLAC\FLAC.EXE
Additional command line options : -8 -V -T "ARTIST=%a" -T "TITLE=%t" -T "ALBUM=%g" -T "DATE=%y" -T "TRACKNUMBER=%n" -T "GENRE=%m" -T "COMMENT=EAC FLAC -8" %s

TOC of the extracted CD

     Track |   Start  |  Length  | Start sector | End sector
    ---------------------------------------------------------
        1  |  0:00.00 |  4:32.72 |         0    |    20471
        2  |  4:32.72 |  2:09.15 |     20472    |    30161
        3  |  6:42.12 |  5:19.44 |     30162    |    54130
        4  | 12:01.56 |  1:08.26 |     54131    |    59256
        5  | 13:10.07 |  8:02.00 |     59257    |    95406
        6  | 21:12.07 |  1:12.47 |     95407    |   100853
        7  | 22:24.54 |  1:13.14 |    100854    |   106342
        8  | 23:37.68 |  1:22.58 |    106343    |   112550
        9  | 25:00.51 |  6:50.11 |    112551    |   143311
       10  | 31:50.62 |  1:28.56 |    143312    |   149967
       11  | 33:19.43 |  0:55.19 |    149968    |   154111
       12  | 34:14.62 |  5:08.00 |    154112    |   177211
       13  | 39:22.62 |  5:10.60 |    177212    |   200521
       14  | 44:33.47 |  0:47.06 |    200522    |   204052
       15  | 45:20.53 |  3:51.51 |    204053    |   221428
       16  | 49:12.29 |  1:06.20 |    221429    |   226398
       17  | 50:18.49 |  1:26.47 |    226399    |   232895
       18  | 51:45.21 |  1:14.00 |    232896    |   238445
       19  | 52:59.21 |  1:06.34 |    238446    |   243429
       20  | 54:05.55 |  1:30.17 |    243430    |   250196
       21  | 55:35.72 |  1:53.65 |    250197    |   258736
       22  | 57:29.62 |  0:22.45 |    258737    |   260431
       23  | 57:52.32 |  1:23.56 |    260432    |   266712
       24  | 59:16.13 |  7:02.59 |    266713    |   298421
       25  | 66:18.72 |  0:37.39 |    298422    |   301235
       26  | 66:56.36 |  1:26.24 |    301236    |   307709
       27  | 68:22.60 |  1:44.27 |    307710    |   315536
       28  | 70:07.12 |  1:31.00 |    315537    |   322361
       29  | 71:38.12 |  1:48.11 |    322362    |   330472

Track  1

     Filename C:\01. P.BVaszczak and A.Skorupa - A.Skorupa , Dusk of a Northern Kingdom.wav

     Pre-gap length  0:00:02.00

     Peak level 93.2 %
     Extraction speed 3.8 X
     Track quality 99.9 %
     Test CRC 3F40A2CF
     Copy CRC 3F40A2CF
     Accurately ripped (confidence 1)  [B0F22E6D]
     Copy OK

Track  2

     Filename C:\02. P.BVaszczak and A.Skorupa - A.Skorupa , A Wolf's Demise.wav

     Peak level 99.7 %
     Extraction speed 4.3 X
     Track quality 100.0 %
     Test CRC 66C266CF
     Copy CRC 66C266CF
     Accurately ripped (confidence 1)  [CF22056F]
     Copy OK

Track  3

     Filename C:\03. P.BVaszczak and A.Skorupa - River of Life.wav

     Peak level 98.0 %
     Extraction speed 5.6 X
     Track quality 100.0 %
     Test CRC 9A502BBE
     Copy CRC 9A502BBE
     Accurately ripped (confidence 1)  [303B0CB9]
     Copy OK

Track  4

     Filename C:\04. P.BVaszczak and A.Skorupa - Mighty.wav

     Peak level 88.8 %
     Extraction speed 3.9 X
     Track quality 100.0 %
     Test CRC F5B22BEF
     Copy CRC F5B22BEF
     Accurately ripped (confidence 1)  [EED32506]
     Copy OK

Track  5

     Filename C:\05. P.BVaszczak and A.Skorupa - A.Skorupa , Dead City.wav

     Peak level 98.4 %
     Extraction speed 6.4 X
     Track quality 100.0 %
     Test CRC 4DD74674
     Copy CRC 4DD74674
     Accurately ripped (confidence 1)  [07442A20]
     Copy OK

Track  6

     Filename C:\06. P.BVaszczak and A.Skorupa - Last Battle.wav

     Peak level 99.7 %
     Extraction speed 4.5 X
     Track quality 100.0 %
     Test CRC 0E8BB3BB
     Copy CRC 0E8BB3BB
     Accurately ripped (confidence 1)  [65CD8372]
     Copy OK

Track  7

     Filename C:\07. P.BVaszczak and A.Skorupa - A.Skorupa , Elaine Ettariel.wav

     Peak level 98.8 %
     Extraction speed 4.9 X
     Track quality 100.0 %
     Test CRC 54767C1F
     Copy CRC 54767C1F
     Accurately ripped (confidence 1)  [C7C84F61]
     Copy OK

Track  8

     Filename C:\08. P.BVaszczak and A.Skorupa - A.Skorupa , To Arms (Rebellion).wav

     Peak level 98.8 %
     Extraction speed 5.2 X
     Track quality 100.0 %
     Test CRC 32FBFF39
     Copy CRC 32FBFF39
     Accurately ripped (confidence 1)  [2AAA32D2]
     Copy OK

Track  9

     Filename C:\09. P.BVaszczak and A.Skorupa - P.BVaszczak & A.Skorupa , The Princess Striga.wav

     Peak level 99.7 %
     Extraction speed 7.4 X
     Track quality 100.0 %
     Test CRC 3271AC73
     Copy CRC 3271AC73
     Accurately ripped (confidence 1)  [2FCE777A]
     Copy OK

Track 10

     Filename C:\10. P.BVaszczak and A.Skorupa - Returning to the Fortress.wav

     Peak level 97.2 %
     Extraction speed 5.8 X
     Track quality 100.0 %
     Test CRC 8D62A2C5
     Copy CRC 8D62A2C5
     Accurately ripped (confidence 1)  [563202C7]
     Copy OK

Track 11

     Filename C:\11. P.BVaszczak and A.Skorupa - Evening in the Tavern.wav

     Peak level 99.1 %
     Extraction speed 4.9 X
     Track quality 100.0 %
     Test CRC E5E6F17D
     Copy CRC E5E6F17D
     Accurately ripped (confidence 1)  [B4C6C1FA]
     Copy OK

Track 12

     Filename C:\12. P.BVaszczak and A.Skorupa - A.Skorupa , Peaceful Moments.wav

     Peak level 98.6 %
     Extraction speed 7.5 X
     Track quality 100.0 %
     Test CRC 56935683
     Copy CRC 56935683
     Accurately ripped (confidence 1)  [1034E835]
     Copy OK

Track 13

     Filename C:\13. P.BVaszczak and A.Skorupa - A.Skorupa , An Ominous Place.wav

     Peak level 98.9 %
     Extraction speed 6.6 X
     Track quality 99.9 %
     Test CRC D2200230
     Copy CRC D2200230
     Accurately ripped (confidence 1)  [4D8A7CF9]
     Copy OK

Track 14

     Filename C:\14. P.BVaszczak and A.Skorupa - Temerian Castle Theme.wav

     Peak level 93.0 %
     Extraction speed 4.6 X
     Track quality 100.0 %
     Test CRC 26ADBE43
     Copy CRC 26ADBE43
     Accurately ripped (confidence 1)  [85118F41]
     Copy OK

Track 15

     Filename C:\15. P.BVaszczak and A.Skorupa - Order.wav

     Peak level 96.4 %
     Extraction speed 7.7 X
     Track quality 100.0 %
     Test CRC 0F7A88E6
     Copy CRC 0F7A88E6
     Accurately ripped (confidence 1)  [F5A84B78]
     Copy OK

Track 16

     Filename C:\16. P.BVaszczak and A.Skorupa - Night Approaches.wav

     Peak level 98.9 %
     Extraction speed 5.5 X
     Track quality 100.0 %
     Test CRC 233B47F0
     Copy CRC 233B47F0
     Accurately ripped (confidence 1)  [96A6DBEF]
     Copy OK

Track 17

     Filename C:\17. P.BVaszczak and A.Skorupa - A.Skorupa , The Grand Master Revealed.wav

     Peak level 99.9 %
     Extraction speed 6.1 X
     Track quality 100.0 %
     Test CRC A1F9CC2B
     Copy CRC A1F9CC2B
     Accurately ripped (confidence 1)  [E093FA2A]
     Copy OK

Track 18

     Filename C:\18. P.BVaszczak and A.Skorupa - A.Skorupa , Withered Roses.wav

     Peak level 99.9 %
     Extraction speed 5.9 X
     Track quality 100.0 %
     Test CRC 190F88BB
     Copy CRC 190F88BB
     Accurately ripped (confidence 1)  [4249B529]
     Copy OK

Track 19

     Filename C:\19. P.BVaszczak and A.Skorupa - Prepare for Battle!.wav

     Peak level 100.0 %
     Extraction speed 6.1 X
     Track quality 100.0 %
     Test CRC 50DE70D7
     Copy CRC 50DE70D7
     Accurately ripped (confidence 1)  [E7E2A5E0]
     Copy OK

Track 20

     Filename C:\20. P.BVaszczak and A.Skorupa - A.Skorupa , Do You Remember.wav

     Peak level 100.0 %
     Extraction speed 6.5 X
     Track quality 100.0 %
     Test CRC D76543FE
     Copy CRC D76543FE
     Accurately ripped (confidence 1)  [E48863B5]
     Copy OK

Track 21

     Filename C:\21. P.BVaszczak and A.Skorupa - P.BVaszczak & A.Skorupa , The Lesser of Two Evils.wav

     Peak level 99.9 %
     Extraction speed 5.1 X
     Track quality 99.9 %
     Test CRC 25703C84
     Copy CRC 25703C84
     Accurately ripped (confidence 1)  [DA631C56]
     Copy OK

Track 22

     Filename C:\22. P.BVaszczak and A.Skorupa - A.Skorupa , Catch Me If You Can.wav

     Peak level 99.9 %
     Extraction speed 3.4 X
     Track quality 100.0 %
     Test CRC FFF31E9C
     Copy CRC FFF31E9C
     Accurately ripped (confidence 1)  [E7061CEE]
     Copy OK

Track 23

     Filename C:\23. P.BVaszczak and A.Skorupa - Tavern at the End of World.wav

     Peak level 98.9 %
     Extraction speed 6.9 X
     Track quality 100.0 %
     Test CRC 33E69634
     Copy CRC 33E69634
     Accurately ripped (confidence 1)  [47501367]
     Copy OK

Track 24

     Filename C:\24. P.BVaszczak and A.Skorupa - The Dike.wav

     Peak level 98.1 %
     Extraction speed 9.5 X
     Track quality 100.0 %
     Test CRC 6AA4ECDE
     Copy CRC 6AA4ECDE
     Accurately ripped (confidence 1)  [73C6D799]
     Copy OK

Track 25

     Filename C:\25. P.BVaszczak and A.Skorupa - A.Skorupa , Twilight.wav

     Peak level 99.9 %
     Extraction speed 2.6 X
     Track quality 99.7 %
     Test CRC B5C21A39
     Copy CRC B5C21A39
     Accurately ripped (confidence 1)  [0B5292A5]
     Copy OK

Track 26

     Filename C:\26. P.BVaszczak and A.Skorupa - P.BVaszczak & A.Skorupa , A Matter of Conscience.wav

     Peak level 100.0 %
     Extraction speed 4.6 X
     Track quality 99.8 %
     Test CRC 75FB7B5C
     Copy CRC 75FB7B5C
     Accurately ripped (confidence 1)  [35F9A231]
     Copy OK

Track 27

     Filename C:\27. P.BVaszczak and A.Skorupa - A.Skorupa , Leo's Farewell.wav

     Peak level 99.9 %
     Extraction speed 7.8 X
     Track quality 100.0 %
     Test CRC 805BCF29
     Copy CRC 805BCF29
     Accurately ripped (confidence 1)  [95F1D79C]
     Copy OK

Track 28

     Filename C:\28. P.BVaszczak and A.Skorupa - Silver Sword.wav

     Peak level 99.8 %
     Extraction speed 4.9 X
     Track quality 99.8 %
     Test CRC C3A95138
     Copy CRC C3A95138
     Accurately ripped (confidence 1)  [C28E7D35]
     Copy OK

Track 29

     Filename C:\29. P.BVaszczak and A.Skorupa - P.BVaszczak & A.Skorupa , Kingdom and Betrayal.wav

     Peak level 98.3 %
     Extraction speed 8.0 X
     Track quality 100.0 %
     Test CRC A0F201C3
     Copy CRC A0F201C3
     Accurately ripped (confidence 1)  [BC1DE892]
     Copy OK

All tracks accurately ripped

No errors occurred

End of status report

==== Log checksum D7B1E2C61FD785E6716B8F2E09BBB6154F92A30D2345C55513E8ED43B16C6830 ====

Код:

-----------------------

DON'T MODIFY THIS FILE

-----------------------

PERFORMER: auCDtect Task Manager, ver. 1.5.1RC4 build 1.5.1.5
Copyright (c) 2008-2010 y-soft. All rights reserved
http://y-soft.org

ANALYZER: auCDtect: CD records authenticity detector, version 0.8.2
Copyright (c) 2004 Oleg Berngardt. All rights reserved.
Copyright (c) 2004 Alexander Djourik. All rights reserved.

FILE: 29. P.BVaszczak and A.Skorupa - P.BVaszczak & A.Skorupa , Kingdom and Betrayal.flac
  Size: 10582425 Hash: D3FD7520F643D44BF83384EFAE4CBCE4 Accuracy: -m0
  Conclusion: MPEG 99%
  Signature: 36D4B0C68EE560A4174A577162BE2F991004CFC7
FILE: 28. P.BVaszczak and A.Skorupa - Silver Sword.flac
  Size: 8244600 Hash: 035E25CC703691805DCE357DDC5FF12E Accuracy: -m0
  Conclusion: CDDA 100%
  Signature: 9EA6CAD2E4957E67965D9C0DC36C1438A1E3427F
FILE: 27. P.BVaszczak and A.Skorupa - A.Skorupa , Leo's Farewell.flac
  Size: 9188529 Hash: 38199357B3C90287E15A61A8A5EE14C3 Accuracy: -m0
  Conclusion: CDDA 54%
  Signature: D6197DEAB1A4EF166F6FD76232A8158F870925F4
FILE: 26. P.BVaszczak and A.Skorupa - P.BVaszczak & A.Skorupa , A Matter of Conscience.flac
  Size: 8377078 Hash: 22FBF8A4B118702DC05456ABF1ADFDA6 Accuracy: -m0
  Conclusion: CDDA 100%
  Signature: D2AF90DF3AF82271AA03A6A3AB5BAFCEE4D95AFB
FILE: 25. P.BVaszczak and A.Skorupa - A.Skorupa , Twilight.flac
  Size: 3503900 Hash: 9AFF835FECC5CDA13B21A2C5C0529FEE Accuracy: -m0
  Conclusion: CDDA 100%
  Signature: 796544926329F31A47C1FFA57E1A1D9BFED0BDB0
FILE: 24. P.BVaszczak and A.Skorupa - The Dike.flac
  Size: 38745392 Hash: B36E455B2B7D0810ADF5E749A2463F48 Accuracy: -m0
  Conclusion: CDDA 100%
  Signature: 309D3B5C3F8AAC37405B587357C309F722DDBFA2
FILE: 23. P.BVaszczak and A.Skorupa - Tavern at the End of World.flac
  Size: 9006705 Hash: BCB522BF0B9D4521E6302B5BAF66D91E Accuracy: -m0
  Conclusion: MPEG 99%
  Signature: 785D9BEAD9E61FE6837CBB69D41C852F443EA8C8
FILE: 22. P.BVaszczak and A.Skorupa - A.Skorupa , Catch Me If You Can.flac
  Size: 2461396 Hash: F9451EB3438A41540DDFFF903B2EE60A Accuracy: -m0
  Conclusion: CDDA 100%
  Signature: B6700DA157B84F1FB865682828379DDA9D77B450
FILE: 21. P.BVaszczak and A.Skorupa - P.BVaszczak & A.Skorupa , The Lesser of Two Evils.flac
  Size: 12121158 Hash: 38D5A6599374D4B4E0EF265A97BB7EEE Accuracy: -m0
  Conclusion: CDDA 100%
  Signature: 13DE410E65BE94714621107BE1E1656B23F09AFC
FILE: 20. P.BVaszczak and A.Skorupa - A.Skorupa , Do You Remember.flac
  Size: 8623173 Hash: 72C22467846596725B4DFE3721BD722F Accuracy: -m0
  Conclusion: CDDA 99%
  Signature: 4553895E8E047A9B0555FFCC17891F64FD65C7D5
FILE: 19. P.BVaszczak and A.Skorupa - Prepare for Battle!.flac
  Size: 7133607 Hash: 8780EAD99A6A6B6325BC6E9751555E41 Accuracy: -m0
  Conclusion: CDDA 99%
  Signature: 3240B7A3C9E2515F58DD6232ABFE7C6A3A4FDEC3
FILE: 18. P.BVaszczak and A.Skorupa - A.Skorupa , Withered Roses.flac
  Size: 6664676 Hash: C617DD934AC72DF61FED8D9F022CAF00 Accuracy: -m0
  Conclusion: CDDA 99%
  Signature: 05D8488E7214A03D83AE07B8D916E8B303C5E236
FILE: 17. P.BVaszczak and A.Skorupa - A.Skorupa , The Grand Master Revealed.flac
  Size: 8578588 Hash: 764D6792D92C0ABAAEF9903430A92AE2 Accuracy: -m0
  Conclusion: CDDA 100%
  Signature: 2A642516201659BC235857372D85AC634253F8ED
FILE: 16. P.BVaszczak and A.Skorupa - Night Approaches.flac
  Size: 6606736 Hash: BD50C1093DA2E24B73DF2B73D7F070DD Accuracy: -m0
  Conclusion: MPEG 99%
  Signature: EAF7019A86A5D302BE6ABCF7A491ADB25C26CD71
FILE: 15. P.BVaszczak and A.Skorupa - Order.flac
  Size: 18959332 Hash: 6D08766B3EF66070E0A5321A58723808 Accuracy: -m0
  Conclusion: CDDA 100%
  Signature: FFCE4C522AE7D4172DC9EC7676480FFE39D1B06D
FILE: 14. P.BVaszczak and A.Skorupa - Temerian Castle Theme.flac
  Size: 4665503 Hash: DEF5CD2495F9BC80FA46A3EEBFFF385F Accuracy: -m0
  Conclusion: CDDA 100%
  Signature: F7EAD4FD0E56AE8FD2EB9AF02EB86F0F0CADA28D
FILE: 13. P.BVaszczak and A.Skorupa - A.Skorupa , An Ominous Place.flac
  Size: 27761839 Hash: 151D7237530AE82CB11DB0990B099EF6 Accuracy: -m0
  Conclusion: CDDA 99%
  Signature: 74EBE9EFDF7EFC922A5F93F7417CDC04C721F4F9
FILE: 12. P.BVaszczak and A.Skorupa - A.Skorupa , Peaceful Moments.flac
  Size: 31728693 Hash: D4ADB95C991CC7FBF08369A8E698B1E2 Accuracy: -m0
  Conclusion: CDDA 100%
  Signature: 8A95E06A19AF3A9C85EDE15388DBE5ED49A05CD3
FILE: 11. P.BVaszczak and A.Skorupa - Evening in the Tavern.flac
  Size: 5509861 Hash: 3F9A32B9EA8D7857A79CC5C3F557CEBC Accuracy: -m0
  Conclusion: MPEG 91%
  Signature: 2C4524F32C60314BE2309E28F20D55BE4993B27E
FILE: 10. P.BVaszczak and A.Skorupa - Returning to the Fortress.flac
  Size: 8807460 Hash: DFBA4F84199C457C0F768CF0EED3EAAF Accuracy: -m0
  Conclusion: CDDA 100%
  Signature: CDAC759242363C45398236A0E33C8322E78ADD51
FILE: 09. P.BVaszczak and A.Skorupa - P.BVaszczak & A.Skorupa , The Princess Striga.flac
  Size: 34493882 Hash: DDC852B8CAB0FC92F72EBFBE9CB0841A Accuracy: -m0
  Conclusion: CDDA 100%
  Signature: E44F5198FC80E17F97AD97CA9EF92405C6959A86
FILE: 08. P.BVaszczak and A.Skorupa - A.Skorupa , To Arms (Rebellion).flac
  Size: 9636275 Hash: C6E2F29E3270897C0836C6391FB7D799 Accuracy: -m0
  Conclusion: CDDA 100%
  Signature: 9A5BB772BEBBB03055D6CFFF46543C3EBF2C51BB
FILE: 07. P.BVaszczak and A.Skorupa - A.Skorupa , Elaine Ettariel.flac
  Size: 6963044 Hash: 6434D1CEB9B330C54099A151BE92DF45 Accuracy: -m0
  Conclusion: CDDA 100%
  Signature: 0055F8CC3E8EA82708D5E17BC5B8D1F75371B124
FILE: 06. P.BVaszczak and A.Skorupa - Last Battle.flac
  Size: 8463249 Hash: E6F5FEEFD32771367153B7319F24BCBD Accuracy: -m0
  Conclusion: CDDA 100%
  Signature: 877853BE904C8C866C7DBBBE7F14C5ADEF690C6F
FILE: 05. P.BVaszczak and A.Skorupa - A.Skorupa , Dead City.flac
  Size: 42662312 Hash: 0CA22A16F4BEAC6CD79987757BAFE4E6 Accuracy: -m0
  Conclusion: CDDA 100%
  Signature: 20B05DECD177B5A6B94668A2404498A7816163DB
FILE: 04. P.BVaszczak and A.Skorupa - Mighty.flac
  Size: 7878969 Hash: 58A6DFB0A20331974A74B7167F03F62D Accuracy: -m0
  Conclusion: CDDA 100%
  Signature: 22DCD8676A7764B95F70CC77127BBC72B1AA3215
FILE: 03. P.BVaszczak and A.Skorupa - River of Life.flac
  Size: 29576040 Hash: 3B40453EF9474DD59BFD507E057D1F79 Accuracy: -m0
  Conclusion: CDDA 99%
  Signature: 5CD05BC31B320476E250E917484CF52379CE36CF
FILE: 02. P.BVaszczak and A.Skorupa - A.Skorupa , A Wolf's Demise.flac
  Size: 11152624 Hash: 62F86C65CB7ECE21AB651FF53C63E435 Accuracy: -m0
  Conclusion: CDDA 100%
  Signature: 82848E6600E214609DDDA320A30693991219ADE5
FILE: 01. P.BVaszczak and A.Skorupa - A.Skorupa , Dusk of a Northern Kingdom.flac
  Size: 20936664 Hash: 3C0CFD0113FD2E6B267A3CB892638105 Accuracy: -m0
  Conclusion: MPEG 100%
  Signature: 81635563EEFA5369AC7EC00B299F2C17009C105D

Продолжительность: 01:01:35

Кодек: FLAC
Битрейт: Lossless
Тип рипа: tracks+.cue

Трек лист:
01. Adam Skorupa - Tales of The Witcher (2:35)
02. Rootwater - Born again (4:37)
03. JesusChryslerSuicide - Throw The Stone (5:32)
04. Vader - Sword of The Witcher (3:34)
05. Lady Aarp - Tarot (4:15)
06. Habakuk - Hallowed be thy name (4:14)
07. Village Kollektiv - Sapphire Waters (4:24)
08. Duan - Skellige (4:19)
09. Me Myself And I - Sou-au (4:28)
10. Beltaine - Bring to the Boil (4:32)
11. Rimead - Sentinels of Brokilon (7:16)
12. Believe - The Witcher Theme (2:13)
13. Skowyt - Running away (2:54)
14. Lal - They want to Suck (3:08)
15. Marcin Przybylowicz - Trial of Herbs (3:02)
Код:

Exact Audio Copy V1.0 beta 1 from 15. November 2010

EAC extraction logfile from 12. February 2011, 1:03

Various / The Witcher - Inspired

Used drive  : HL-DT-STDVDRAM GSA-H10N   Adapter: 5  ID: 0

Read mode               : Secure
Utilize accurate stream : Yes
Defeat audio cache      : Yes
Make use of C2 pointers : No

Read offset correction                      : 667
Overread into Lead-In and Lead-Out          : No
Fill up missing offset samples with silence : Yes
Delete leading and trailing silent blocks   : No
Null samples used in CRC calculations       : Yes
Used interface                              : Native Win32 interface for Win NT & 2000
Gap handling                                : Appended to previous track

Used output format              : User Defined Encoder
Selected bitrate                : 768 kBit/s
Quality                         : High
Add ID3 tag                     : No
Command line compressor         : C:\Program Files\Exact Audio Copy\FLAC\FLAC.EXE
Additional command line options : -8 -V -T "ARTIST=%a" -T "TITLE=%t" -T "ALBUM=%g" -T "DATE=%y" -T "TRACKNUMBER=%n" -T "GENRE=%m" -T "COMMENT=EAC FLAC -8" %s

TOC of the extracted CD

     Track |   Start  |  Length  | Start sector | End sector
    ---------------------------------------------------------
        1  |  0:00.00 |  2:38.09 |         0    |    11858
        2  |  2:38.09 |  4:38.57 |     11859    |    32765
        3  |  7:16.66 |  5:34.02 |     32766    |    57817
        4  | 12:50.68 |  3:35.69 |     57818    |    74011
        5  | 16:26.62 |  4:18.66 |     74012    |    93427
        6  | 20:45.53 |  4:16.06 |     93428    |   112633
        7  | 25:01.59 |  4:26.25 |    112634    |   132608
        8  | 29:28.09 |  4:20.62 |    132609    |   152170
        9  | 33:48.71 |  4:28.49 |    152171    |   172319
       10  | 38:17.45 |  4:35.42 |    172320    |   192986
       11  | 42:53.12 |  7:18.05 |    192987    |   225841
       12  | 50:11.17 |  2:13.19 |    225842    |   235835
       13  | 52:24.36 |  2:54.21 |    235836    |   248906
       14  | 55:18.57 |  3:13.15 |    248907    |   263396
       15  | 58:31.72 |  3:03.11 |    263397    |   277132

Track  1

     Filename C:\01. Adam Skorupa - Tales of The Witcher.wav

     Pre-gap length  0:00:02.00

     Peak level 98.9 %
     Extraction speed 4.2 X
     Track quality 100.0 %
     Test CRC 945DB95C
     Copy CRC 945DB95C
     Accurately ripped (confidence 15)  [4F82E4FC]
     Copy OK

Track  2

     Filename C:\02. Rootwater - Born again.wav

     Peak level 98.9 %
     Extraction speed 5.0 X
     Track quality 100.0 %
     Test CRC D6BC4CA3
     Copy CRC D6BC4CA3
     Accurately ripped (confidence 15)  [CD755B5B]
     Copy OK

Track  3

     Filename C:\03. Jesus Chrysler Suicide - Throw The Stone.wav

     Peak level 98.9 %
     Extraction speed 5.6 X
     Track quality 100.0 %
     Test CRC FDB28DB8
     Copy CRC FDB28DB8
     Accurately ripped (confidence 15)  [3CE64B0B]
     Copy OK

Track  4

     Filename C:\04. Vader - Sword of The Witcher.wav

     Peak level 92.5 %
     Extraction speed 5.9 X
     Track quality 100.0 %
     Test CRC BF40EC95
     Copy CRC BF40EC95
     Accurately ripped (confidence 15)  [DB9531ED]
     Copy OK

Track  5

     Filename C:\05. Lady Aarp - Tarot.wav

     Peak level 98.8 %
     Extraction speed 6.2 X
     Track quality 100.0 %
     Test CRC 695E369E
     Copy CRC 695E369E
     Accurately ripped (confidence 15)  [BABC0972]
     Copy OK

Track  6

     Filename C:\06. Habakuk - Hallowed be thy name.wav

     Peak level 98.9 %
     Extraction speed 6.7 X
     Track quality 100.0 %
     Test CRC D3A585CC
     Copy CRC D3A585CC
     Accurately ripped (confidence 15)  [3B13C35B]
     Copy OK

Track  7

     Filename C:\07. Village Kollektiv - Sapphire Waters.wav

     Peak level 98.9 %
     Extraction speed 7.0 X
     Track quality 100.0 %
     Test CRC 5CEC77A7
     Copy CRC 5CEC77A7
     Accurately ripped (confidence 15)  [A4C1734B]
     Copy OK

Track  8

     Filename C:\08. Duan - Skellige.wav

     Peak level 98.9 %
     Extraction speed 7.3 X
     Track quality 100.0 %
     Test CRC C5399E89
     Copy CRC C5399E89
     Accurately ripped (confidence 15)  [6B8F45AF]
     Copy OK

Track  9

     Filename C:\09. Me Myself And I - Sou-au.wav

     Peak level 98.9 %
     Extraction speed 6.3 X
     Track quality 99.9 %
     Test CRC 6DBD477D
     Copy CRC 6DBD477D
     Accurately ripped (confidence 15)  [241783C7]
     Copy OK

Track 10

     Filename C:\10. Beltaine - Bring to the Boil.wav

     Peak level 95.3 %
     Extraction speed 7.7 X
     Track quality 100.0 %
     Test CRC 8F727628
     Copy CRC 8F727628
     Accurately ripped (confidence 15)  [6BFB2427]
     Copy OK

Track 11

     Filename C:\11. Rimead - Sentinels of Brokilon.wav

     Peak level 91.0 %
     Extraction speed 8.8 X
     Track quality 100.0 %
     Test CRC 68B3D43B
     Copy CRC 68B3D43B
     Accurately ripped (confidence 15)  [9B53698F]
     Copy OK

Track 12

     Filename C:\12. Believe - The Witcher Theme.wav

     Peak level 100.0 %
     Extraction speed 7.5 X
     Track quality 100.0 %
     Test CRC 00A15F58
     Copy CRC 00A15F58
     Accurately ripped (confidence 16)  [6D64FDAF]
     Copy OK

Track 13

     Filename C:\13. Skowyt - Running away.wav

     Peak level 98.9 %
     Extraction speed 7.9 X
     Track quality 100.0 %
     Test CRC 97398B18
     Copy CRC 97398B18
     Accurately ripped (confidence 15)  [CFEF848F]
     Copy OK

Track 14

     Filename C:\14. Lal - They want to Suck.wav

     Peak level 98.9 %
     Extraction speed 8.2 X
     Track quality 100.0 %
     Test CRC F7B5E92F
     Copy CRC F7B5E92F
     Accurately ripped (confidence 15)  [00CD074F]
     Copy OK

Track 15

     Filename C:\15. Marcin Przybylowicz - Trial of Herbs.wav

     Peak level 98.9 %
     Extraction speed 8.5 X
     Track quality 100.0 %
     Test CRC 5A4538BB
     Copy CRC 5A4538BB
     Accurately ripped (confidence 16)  [30DF9962]
     Copy OK

All tracks accurately ripped

No errors occurred

End of status report

==== Log checksum F13B73BDAA8FF68C45C5572C26DA9EAE356787070DEE1E8905DC918F5531AA3E ====

Код:

-----------------------

DON'T MODIFY THIS FILE

-----------------------

PERFORMER: auCDtect Task Manager, ver. 1.5.1RC4 build 1.5.1.5
Copyright (c) 2008-2010 y-soft. All rights reserved
http://y-soft.org

ANALYZER: auCDtect: CD records authenticity detector, version 0.8.2
Copyright (c) 2004 Oleg Berngardt. All rights reserved.
Copyright (c) 2004 Alexander Djourik. All rights reserved.

FILE: 15. Marcin Przybylowicz - Trial of Herbs.flac
  Size: 19019129 Hash: 8D0D8B218250D51D7BF2B74A90CB3682 Accuracy: -m0
  Conclusion: CDDA 100%
  Signature: 639286531EFA7C643547FB9DEAF530B354A8EF5D
FILE: 14. Lal - They want to Suck.flac
  Size: 24059505 Hash: B1FDD3295A42DC6AA221232C3B641DF2 Accuracy: -m0
  Conclusion: CDDA 100%
  Signature: 2ADC1467067E28FC4C348AE2190974E8949327AE
FILE: 13. Skowyt - Running away.flac
  Size: 23439173 Hash: 4A3864C884571DA709C3A138C4FB7995 Accuracy: -m0
  Conclusion: CDDA 100%
  Signature: C3D995C7ADD669E3DA5D6C2B27B01618EF97BF6C
FILE: 12. Believe - The Witcher Theme.flac
  Size: 16730673 Hash: 412BC59621627305EB9AC11B1E2A3EDD Accuracy: -m0
  Conclusion: CDDA 100%
  Signature: 18DDD4FA829B018461E5AA82B166AD3FAEF588E8
FILE: 11. Rimead - Sentinels of Brokilon.flac
  Size: 50539712 Hash: 311558113F57C7FC02132DFFD1ACE402 Accuracy: -m0
  Conclusion: CDDA 99%
  Signature: 582BDA8D6FB3A7CCB1629DC90DD10CB686C46B69
FILE: 10. Beltaine - Bring to the Boil.flac
  Size: 36403254 Hash: 823BCB74D9501CA8A1F120554B1E9A63 Accuracy: -m0
  Conclusion: CDDA 100%
  Signature: DE73A143BF9B566E91528DE7FF71F5B4C4A3C895
FILE: 09. Me Myself And I - Sou-au.flac
  Size: 29204792 Hash: 96085073460B7947960216ADD90600BE Accuracy: -m0
  Conclusion: CDDA 100%
  Signature: 65F965B725BE6D38F372B8A8DCEE5E65716AB174
FILE: 08. Duan - Skellige.flac
  Size: 30818467 Hash: 20E3FD87172F04389DEA747D8BA02110 Accuracy: -m0
  Conclusion: CDDA 100%
  Signature: 15735436E806F67856C44801343A0ABE14CE8D16
FILE: 07. Village Kollektiv - Sapphire Waters.flac
  Size: 31148437 Hash: 20387AB1880DE0D73181BA9401637250 Accuracy: -m0
  Conclusion: CDDA 100%
  Signature: E2339ADAA6E00FB0F9A842179EBBF040B6B75F9C
FILE: 06. Habakuk - Hallowed be thy name.flac
  Size: 27073201 Hash: AC3E974AB1B3D9BE528E457424DF6ECC Accuracy: -m0
  Conclusion: CDDA 100%
  Signature: EC99C0275C4B49021DEEA9C29C627CAF8C2080C2
FILE: 05. Lady Aarp - Tarot.flac
  Size: 27033732 Hash: A1E0D84EF35147F8D42E186C660357F9 Accuracy: -m0
  Conclusion: CDDA 100%
  Signature: 71C6C452BBE2830CA34F59F1E5649BEB12175031
FILE: 04. Vader - Sword of The Witcher.flac
  Size: 28602972 Hash: 9367D9ECD87D6A84159668EDB498E102 Accuracy: -m0
  Conclusion: CDDA 99%
  Signature: 0EDA39EBFC7D176437846D523C8EF71EF646CE2A
FILE: 03. Jesus Chrysler Suicide - Throw The Stone.flac
  Size: 33569608 Hash: 7FA82781C7BE1977E0FDC78678FCC01B Accuracy: -m0
  Conclusion: CDDA 100%
  Signature: D3AD577B7574AC2563DC96EF93877B8CD3423950
FILE: 02. Rootwater - Born again.flac
  Size: 35948355 Hash: D229BFC14ECAC67AE2B1518A6D605C1E Accuracy: -m0
  Conclusion: CDDA 99%
  Signature: BFAA79550A873D728807BBC75FE9990BE18EF8D8
FILE: 01. Adam Skorupa - Tales of The Witcher.flac
  Size: 17991706 Hash: 5EEAC10D76DB95BF770E239519F7F3CA Accuracy: -m0
  Conclusion: CDDA 100%
  Signature: 7589BF09B081D8BD9A20988D7EE9A78B3D8815D2



Время раздачи: с 18:00 до 00:00
[NNM-Club.ru]_The Witcher OST.torrent
 Торрент: Золотая раздача  Зарегистрирован
 


Зарегистрируйтесь и скачайте торрент!
 Зарегистрирован:   11 Фев 2012 23:22:55
 Размер:   802 MB  (
 Рейтинг:   4,3 (Голосов: 16)
 Поблагодарили:   40
 Проверка:   Оформление проверено модератором 12 Фев 2012 00:43:40
Как cкачать  ·  Как раздать  ·  Правильно оформить  ·  Поднять ратио!  


Последний раз редактировалось: StirlitzZ (12 Фев 2012 00:32:15), всего редактировалось 5 раз(а)
StirlitzZ ®
Стаж: 4 года 4 мес.
Сообщений: 220
Ratio: 20,989
Раздал: 2,196 TB
Поблагодарили: 3460
91.5%
russia.gif
Сообщение 11 Фев 2012 23:29:56  Заголовок сообщения: Ответить с цитатой

Обзор саундтрэка.
VirusBIN
Сталкер
Стаж: 6 лет 8 мес.
Сообщений: 28789
Ratio: 56,352
Поблагодарили: 8058
100%
Откуда: Beverly Восточное
witch.png
Сообщение 11 Фев 2012 23:53:33  Заголовок сообщения: Ответить с цитатой

StirlitzZ
Я поправил название темы. А вы пожалуйста поставьте жанр музыки, которая ожидает нас на дисках. Потому как "саундтрек", что вы указали - не музыкальный жанр, а, скорее, тэг.

_________________
Правила раздела :: Сделать треклист :: auCDtect Task Manager :: TagScanner :: EAC :: CUE
Google: «Скорее всего, на картинке девушка с шампанским»
StirlitzZ ®
Стаж: 4 года 4 мес.
Сообщений: 220
Ratio: 20,989
Раздал: 2,196 TB
Поблагодарили: 3460
91.5%
russia.gif
Сообщение 12 Фев 2012 00:32:47  Заголовок сообщения: Ответить с цитатой

VirusBIN, исправлено.
Aleks​andrB​u​
Стаж: 2 года 7 мес.
Сообщений: 75
Ratio: 0,918
26.67%
Сообщение 25 Мар 2013 21:10:18  Заголовок сообщения: Ответить с цитатой

сижу слушаю... потрясающая музыка, особенно нравится river of life. сразу вспоминаю деревню возле вызимы... мне так нравится там побродить. изумительно переданная атмосфера... красивая музыка, шикарная игра! спасибо!
Показать сообщения:   
Начать новую тему   Ответить на тему    Торрент-трекер NNM-Club -> Other Styles -> OST (Lossless) Часовой пояс: GMT + 4
Страница 1 из 1