Интеллигентный торрент-трекер
Нас вместе: 3 950 493 | Новости торрент-трекера | Как тут скачивать? | Как раздавать торренты? | Правила оформления

VA - Vargo Lounge - 10 Years Of Chill Out (2011) [FLAC|Lossless]<Chillout, Lounge, Ambient>


 
 
RSS
Начать новую тему   Ответить на тему    Торрент-трекер NNM-Club -> Electronic -> Easy listening (Lossless)
Предыдущая тема :: Следующая тема 
Автор Сообщение
VolgaD ®
Стаж: 4 года 6 мес.
Сообщений: 3547
Ratio: 2452,655
Поблагодарили: 37391
100%
newzealand.gif
Сообщение 25 Дек 2011 15:42:04  Заголовок сообщения: VA - Vargo Lounge - 10 Years Of Chill Out (2011) [FLAC|Lossless]<Chillout, Lounge, Ambient> Ответить с цитатой

VA - Vargo Lounge - 10 Years Of Chill Out (2011)
Год: 2011
Жанр: Chillout, Lounge, Ambient
Лейбл: Ambient Domain
Каталог #: ADCD 010
Продолжительность: 01:26:06
Кодек: FLAC
Битрейт: Lossless
Тип рипа: tracks + .cue
Трек лист:
01. Thomas Lemmer - I like it (letting go mix)
02. Vargo - Those were the days (anniversary mix)
03. Elkeland - Hallo
04. Die Fantastischen Vier - Tag am meer (radio version)
05. Christope Goze - Hello
06. Vargo - The moment (long chorus mix)
07. Deep Dive Corp. - Wider
08. Chris Zippel - Where water is
09. Hattler - So slow
10. Rencause - Essaouria
11. Sine - Nebula
12. DJ Ping meets P.M.FM - No rain
13. Afterlife - Miracle
14. Carmen Cuesta-Loeb - While my guitar gently weeps
Код:

Exact Audio Copy V0.99 prebeta 5 from 4. May 2009

EAC extraction logfile from 15. November 2011, 11:39

Various / Vargo Lounge 10 Years Of Chillout-Compiled By Vargo

Used drive  : ATAPI   iHAS120   6   Adapter: 1  ID: 1

Read mode               : Secure
Utilize accurate stream : No
Defeat audio cache      : Yes
Make use of C2 pointers : No

Read offset correction                      : 6
Overread into Lead-In and Lead-Out          : No
Fill up missing offset samples with silence : Yes
Delete leading and trailing silent blocks   : No
Null samples used in CRC calculations       : Yes
Used interface                              : Native Win32 interface for Win NT & 2000
Gap handling                                : Appended to previous track

Used output format              : User Defined Encoder
Selected bitrate                : 128 kBit/s
Quality                         : High
Add ID3 tag                     : No
Command line compressor         : C:\Program Files (x86)\Exact Audio Copy\Flac\flac.exe
Additional command line options : -V -8 -T "artist=%a" -T "title=%t" -T "album=%g" -T "date=%y" -T "tracknumber=%n" -T "genre=%m" %s

TOC of the extracted CD

     Track |   Start  |  Length  | Start sector | End sector
    ---------------------------------------------------------
        1  |  0:00.00 |  5:23.21 |         0    |    24245
        2  |  5:23.21 |  5:38.66 |     24246    |    49661
        3  | 11:02.12 |  4:28.39 |     49662    |    69800
        4  | 15:30.51 |  4:04.08 |     69801    |    88108
        5  | 19:34.59 |  5:16.03 |     88109    |   111811
        6  | 24:50.62 |  6:09.13 |    111812    |   139499
        7  | 31:00.00 |  5:41.30 |    139500    |   165104
        8  | 36:41.30 |  4:33.43 |    165105    |   185622
        9  | 41:14.73 |  5:07.66 |    185623    |   208713
       10  | 46:22.64 |  4:28.61 |    208714    |   228874
       11  | 50:51.50 |  4:53.59 |    228875    |   250908
       12  | 55:45.34 |  5:40.51 |    250909    |   276459
       13  | 61:26.10 |  5:53.48 |    276460    |   302982
       14  | 67:19.58 |  4:30.36 |    302983    |   323268

Track  1

     Filename F:\EAC.Rips\Vargo Lounge 10 Years Of Chillout-Compiled By Vargo - 2011\01 - thomas lemmer - i lke it-(letting go mix).wav

     Pre-gap length  0:00:02.00

     Peak level 78.5 %
     Track quality 100.0 %
     Test CRC F5CEF08D
     Copy CRC F5CEF08D
     Track not present in AccurateRip database
     Copy OK

Track  2

     Filename F:\EAC.Rips\Vargo Lounge 10 Years Of Chillout-Compiled By Vargo - 2011\02 - vargo - those were the days-(anniversary mix).wav

     Peak level 98.8 %
     Track quality 100.0 %
     Test CRC F42DA5EA
     Copy CRC F42DA5EA
     Track not present in AccurateRip database
     Copy OK

Track  3

     Filename F:\EAC.Rips\Vargo Lounge 10 Years Of Chillout-Compiled By Vargo - 2011\03 - elkeland - hallo.wav

     Peak level 98.9 %
     Track quality 100.0 %
     Test CRC 7D852125
     Copy CRC 7D852125
     Track not present in AccurateRip database
     Copy OK

Track  4

     Filename F:\EAC.Rips\Vargo Lounge 10 Years Of Chillout-Compiled By Vargo - 2011\04 - die fantastischen vier - tag am meer-(radio version).wav

     Peak level 98.8 %
     Track quality 100.0 %
     Test CRC BAB1063D
     Copy CRC BAB1063D
     Track not present in AccurateRip database
     Copy OK

Track  5

     Filename F:\EAC.Rips\Vargo Lounge 10 Years Of Chillout-Compiled By Vargo - 2011\05 - christope goze - hello.wav

     Peak level 98.8 %
     Track quality 100.0 %
     Test CRC 2A931926
     Copy CRC 2A931926
     Track not present in AccurateRip database
     Copy OK

Track  6

     Filename F:\EAC.Rips\Vargo Lounge 10 Years Of Chillout-Compiled By Vargo - 2011\06 - vargo - the moment-(long chorus mix).wav

     Peak level 98.8 %
     Track quality 100.0 %
     Test CRC 2AE080E9
     Copy CRC 2AE080E9
     Track not present in AccurateRip database
     Copy OK

Track  7

     Filename F:\EAC.Rips\Vargo Lounge 10 Years Of Chillout-Compiled By Vargo - 2011\07 - deep dive corp. - wider.wav

     Peak level 98.8 %
     Track quality 100.0 %
     Test CRC F3C4F7EE
     Copy CRC F3C4F7EE
     Track not present in AccurateRip database
     Copy OK

Track  8

     Filename F:\EAC.Rips\Vargo Lounge 10 Years Of Chillout-Compiled By Vargo - 2011\08 - chris zippel - where water is.wav

     Peak level 89.9 %
     Track quality 100.0 %
     Test CRC 26B0F43F
     Copy CRC 26B0F43F
     Track not present in AccurateRip database
     Copy OK

Track  9

     Filename F:\EAC.Rips\Vargo Lounge 10 Years Of Chillout-Compiled By Vargo - 2011\09 - hattler - so slow.wav

     Peak level 97.3 %
     Track quality 100.0 %
     Test CRC D8F1BB88
     Copy CRC D8F1BB88
     Track not present in AccurateRip database
     Copy OK

Track 10

     Filename F:\EAC.Rips\Vargo Lounge 10 Years Of Chillout-Compiled By Vargo - 2011\10 - rencause - essaouria.wav

     Peak level 91.8 %
     Track quality 100.0 %
     Test CRC C5C82217
     Copy CRC C5C82217
     Track not present in AccurateRip database
     Copy OK

Track 11

     Filename F:\EAC.Rips\Vargo Lounge 10 Years Of Chillout-Compiled By Vargo - 2011\11 - sine - nebula.wav

     Peak level 86.1 %
     Track quality 100.0 %
     Test CRC 8A52ED51
     Copy CRC 8A52ED51
     Track not present in AccurateRip database
     Copy OK

Track 12

     Filename F:\EAC.Rips\Vargo Lounge 10 Years Of Chillout-Compiled By Vargo - 2011\12 - dj ping meets pmfm - no rain.wav

     Peak level 98.8 %
     Track quality 100.0 %
     Test CRC 2786DFFF
     Copy CRC 2786DFFF
     Track not present in AccurateRip database
     Copy OK

Track 13

     Filename F:\EAC.Rips\Vargo Lounge 10 Years Of Chillout-Compiled By Vargo - 2011\13 - afterlife - miracle.wav

     Peak level 93.3 %
     Track quality 100.0 %
     Test CRC 85924F8A
     Copy CRC 85924F8A
     Track not present in AccurateRip database
     Copy OK

Track 14

     Filename F:\EAC.Rips\Vargo Lounge 10 Years Of Chillout-Compiled By Vargo - 2011\14 - carmen cuesta cuesta-loeb - while my guitar gently weeps.wav

     Peak level 98.8 %
     Track quality 100.0 %
     Test CRC 51C8BFB9
     Copy CRC 51C8BFB9
     Track not present in AccurateRip database
     Copy OK

None of the tracks are present in the AccurateRip database

No errors occurred

End of status report
Код:

-----------------------

DON'T MODIFY THIS FILE

-----------------------

PERFORMER: auCDtect Task Manager, ver. 1.5.1RC4 build 1.5.1.5
Copyright (c) 2008-2010 y-soft. All rights reserved
http://y-soft.org

ANALYZER: auCDtect: CD records authenticity detector, version 0.8.2
Copyright (c) 2004 Oleg Berngardt. All rights reserved.
Copyright (c) 2004 Alexander Djourik. All rights reserved.

FILE: 14 - carmen cuesta cuesta-loeb - while my guitar gently weeps.flac
  Size: 31192077 Hash: CD0EF6DB7CDB948B11CB6CE9C1C52066 Accuracy: -m0
  Conclusion: CDDA 99%
  Signature: C7A699DF9DAA8880A832B917A97FF2559DD6080F
FILE: 13 - afterlife - miracle.flac
  Size: 37692544 Hash: 1337309D743555A97826D388F8676CFF Accuracy: -m0
  Conclusion: CDDA 100%
  Signature: 1558206409F89EA49261D9CEB01EE30F95C2E983
FILE: 12 - dj ping meets pmfm - no rain.flac
  Size: 34762844 Hash: 84BA38778771B258DEF9BAC5D39BCF17 Accuracy: -m0
  Conclusion: CDDA 100%
  Signature: FE259CD00ACEB020B32E6832049121450ED2E446
FILE: 11 - sine - nebula.flac
  Size: 33489874 Hash: FC6B2136E48D889996E4902219620660 Accuracy: -m0
  Conclusion: CDDA 100%
  Signature: C76400440C5F7AADF6079BA020E4B5A7383D019E
FILE: 10 - rencause - essaouria.flac
  Size: 32409890 Hash: 05FA9D6BC51DB7F3050E2E002A2E6500 Accuracy: -m0
  Conclusion: CDDA 100%
  Signature: 8F4D2BE41E506DB4B015DA74A5688F736589D945
FILE: 09 - hattler - so slow.flac
  Size: 33877526 Hash: C28A4F7F53B4C01B894E344F72658725 Accuracy: -m0
  Conclusion: CDDA 100%
  Signature: 83B4732A9B8445DC35ED537DBFBEDFA5C673C9CC
FILE: 08 - chris zippel - where water is.flac
  Size: 29361494 Hash: 4E2BE6905411864621073A96E66DBA80 Accuracy: -m0
  Conclusion: CDDA 100%
  Signature: BDB7D6601EFC587F191B98229CF05B2991C41E07
FILE: 07 - deep dive corp. - wider.flac
  Size: 34779593 Hash: E74F8F1AFCC6B6A096B83ADE8D70DA40 Accuracy: -m0
  Conclusion: CDDA 100%
  Signature: FD6D8E35DF1EC678FBF9171EE3E26338A01421FD
FILE: 06 - vargo - the moment-(long chorus mix).flac
  Size: 42012356 Hash: BD4AAE7453051243CA28B186AB20386C Accuracy: -m0
  Conclusion: CDDA 100%
  Signature: 7551B01D73016869AF05465617045B92C29F590F
FILE: 05 - christope goze - hello.flac
  Size: 34627082 Hash: C158C03B52EB43933E29A825D4498455 Accuracy: -m0
  Conclusion: CDDA 100%
  Signature: 3185293293DB6D3B44388CAE56A4CACA8B46848F
FILE: 04 - die fantastischen vier - tag am meer-(radio version).flac
  Size: 27630526 Hash: BBDE1F98B2A12ED1327660D73B23EE54 Accuracy: -m0
  Conclusion: CDDA 100%
  Signature: E21E4A63009AC1442B9D667FC22F6AF4377382D6
FILE: 03 - elkeland - hallo.flac
  Size: 24972995 Hash: A392D42C09193B5C8552E35624E81998 Accuracy: -m0
  Conclusion: CDDA 100%
  Signature: 245711F92E4322B53FF9990DE2B8EEF42B59B177
FILE: 02 - vargo - those were the days-(anniversary mix).flac
  Size: 38119591 Hash: 62F51BD0F869CDE3B2B782A2AAC16E60 Accuracy: -m0
  Conclusion: CDDA 100%
  Signature: EA794ED88D8AF19F2FC35D73AD88993439822553
FILE: 01 - thomas lemmer - i like it-(letting go mix).flac
  Size: 26522777 Hash: C0C25581F56356ECEB6AEEC78B4AB843 Accuracy: -m0
  Conclusion: CDDA 100%
  Signature: 227BD6155A1C2D43AE738FEFFF1A348A337DB956
Время раздачи: c 19:00 до 24:00, по возможности в другое время
[NNM-Club.ru]_VA - Vargo Lounge - 10 Years Of Chillout (Compiled by Vargo) (2011).torrent
 Торрент: Золотая раздача  Зарегистрирован
 


Зарегистрируйтесь и скачайте торрент!
 Зарегистрирован:   25 Дек 2011 15:42:04
 Размер:   448 MB  (
 Рейтинг:   4,6 (Голосов: 33)
 Поблагодарили:   89
 Проверка:   Оформление проверено модератором 25 Дек 2011 15:43:50
Как cкачать  ·  Как раздать  ·  Правильно оформить  ·  Поднять ратио!  

_________________

Свои раздачи не поддерживаю. Возможно только временно.


Последний раз редактировалось: VolgaD (26 Сен 2012 20:14:03), всего редактировалось 1 раз
anton_dpi
Стаж: 3 года 8 мес.
Сообщений: 4
Ratio: 0,92
8.3%
Сообщение 26 Дек 2011 01:32:58  Заголовок сообщения: Ответить с цитатой

Супер-восхитительно!=)
VolgaD ®
Стаж: 4 года 6 мес.
Сообщений: 3547
Ratio: 2452,655
Поблагодарили: 37391
100%
newzealand.gif
Сообщение 26 Дек 2011 10:33:31  Заголовок сообщения: Ответить с цитатой

anton_dpi писал(а):
Супер-восхитительно

Вот и замечательно, что нравится =)

_________________

Свои раздачи не поддерживаю. Возможно только временно.
igrzbl
Стаж: 3 года 9 мес.
Сообщений: 74
Ratio: 17,833
Поблагодарили: 1710
55.86%
Сообщение 27 Окт 2012 11:37:11  Заголовок сообщения: Ответить с цитатой

Да, круто!
Показать сообщения:   
Начать новую тему   Ответить на тему    Торрент-трекер NNM-Club -> Electronic -> Easy listening (Lossless) Часовой пояс: GMT + 3
Страница 1 из 1