Интеллигентный торрент-трекер
Нас вместе: 4 110 499

Новости торрент-трекера | Как тут скачивать? | Как раздавать торренты? | Правила оформления

Хочу как ты / The Change-Up (2011) BDRip


Страницы:  1, 2, 3, 4, 5, 6, 7  След. 
 
RSS
Начать новую тему   Ответить на тему    Торрент-трекер NNM-Club -> Зарубежное кино -> Зарубежные Фильмы (HD*Rip/LQ, DVDRip, SATRip, VHSRip)
Предыдущая тема :: Следующая тема 
Автор Сообщение
Lelya_K ®
Зам. Куратора Видео
RG Всё лучшее - детям!
 
Стаж: 4 года 3 мес.
Сообщений: 5538
Ratio: 7773,268
Раздал: 108,9 TB
Поблагодарили: 576230
100%
Откуда: Московская область
nnm-club.gif
Сообщение 24 Дек 2011 04:56:34  Заголовок сообщения: Хочу как ты / The Change-Up (2011) BDRip Ответить с цитатой

Хочу как ты / The Change-Up (2011) BDRip
«Иногда мужчины меняются»

Русское название: Хочу как ты
Оригинальное название: The Change-Up
Год выпуска: 2011
Производство: Big Kid Pictures / Original Film / Relativity Media (США)
Жанр: Комедия
Перевод: Дублированный [лицензия]

Дата мировой премьеры: 5 августа 2011
Дата российской премьеры: 1 сентября 2011, «UPI»
Дата выхода DVD / Blu-Ray релиза: 29 декабря 2011, «Двадцатый Век Фокс СНГ»

Режиссер: Дэвид Добкин
Актеры: Райан Рейнольдс, Джейсон Бейтман, Лесли Манн, Оливия Уайлд, Алан Аркин, Мирчи Монро, Грегори Итцин, Нед Шмидтке, Ло Минг, Сидни Рувьер

Описание фильма:
В детстве Митч и Дейв были неразлучными друзьями. Но со временем их дороги разошлись. Дейв стал успешным юристом и примерным семьянином. Митч же остался холостяком и сердцеедом. Он считает, что у друга есть все, о чем только можно мечтать: прекрасная жена Джейми, любящие дети и крутая работа. Дейву же представляется сказочной беззаботная жизнь Митча, который днем курит травку, а ночи проводит в компании красивых женщин. Но однажды в жизни друзей все переворачивается вверх дном: Митч становится Дейвом, а Дейв — Митчем. Героям придется как следует постараться, чтобы вернуть все на свое место и не разрушить окончательно жизни друг друга.



Продолжительность: 01:52:32
Качество видео: BDRip

Видеокодек: XviD
Битрейт видео: ~1447 kbps, Бит/(Пиксели*Кадры): 0.276
Размер кадра: 720x304
Аудиокодек: AC3 5.1
Битрейт аудио: 384 kbps
Полное имя : D:\Хочу.как.ты-The.Change-Up.(2011).BDRip.avi
Формат : AVI
Формат/Информация : Audio Video Interleave
Размер файла : 1,45 Гбайт
Продолжительность : 1 ч. 52 м.
Общий поток : 1840 Кбит/сек
Программа кодирования : VirtualDubModRus 1.5.10.2 (build 2542/release)
Библиотека кодирования : VirtualDubMod build 2542/release

Видео
Идентификатор : 0
Формат : MPEG-4 Visual
Профиль формата : Advanced Simple@L5
Параметр BVOP формата : 2
Параметр QPel формата : Нет
Параметр GMC формата : Без точки перехода
Параметр матрицы формата : Default (MPEG)
Идентификатор кодека : XVID
Идентификатор кодека/Подсказка : XviD
Продолжительность : 1 ч. 52 м.
Битрейт : 1447 Кбит/сек
Ширина : 720 пикс.
Высота : 304 пикс.
Соотношение сторон : 2,35:1
Частота кадров : 23,976 кадр/сек
Цветовое пространство : YUV
Подвыборка цветности : 4:2:0
Битовая глубина : 8 бит
Тип развёртки : Прогрессивная
Метод сжатия : С потерями
Бит/(Пиксели*Кадры) : 0.276
Размер потока : 1,14 Гбайт (79%)
Библиотека кодирования : XviD 1.2.1 (UTC 2008-12-04)

Аудио
Идентификатор : 1
Формат : AC-3
Формат/Информация : Audio Coding 3
Расширение режима : CM (complete main)
Идентификатор кодека : 2000
Продолжительность : 1 ч. 52 м.
Вид битрейта : Постоянный
Битрейт : 384 Кбит/сек
Каналы : 6 каналов
Расположение каналов : Front: L C R, Side: L R, LFE
Частота : 48,0 КГц
Битовая глубина : 16 бит
Метод сжатия : С потерями
Размер потока : 309 Мбайт (21%)
Выравнивание : Разделение по промежуткам
Продолжительность промежутка : 42 мс. (1,00 видеокадр)
Время предзагрузки промежутка : 500 ms
Скриншоты:


Время раздачи: 24/7 (до 10 скачавших)
[NNM-Club.ru]_Hochu.kak.tyi-The.Change-Up.(2011).BDRip.avi.torrent
 Торрент: Золотая раздача  Зарегистрирован
 
Примагнититься
Free Leech
Зарегистрируйтесь и скачайте торрент!
14,7 KB
 Зарегистрирован:   24 Дек 2011 04:56:34
 Размер:   1,45 GB  (
 Рейтинг:   4,7 (Голосов: 567)
 Поблагодарили:   2633
 Проверка:   Оформление проверено модератором 24 Дек 2011 07:09:42
Как cкачать  ·  Как раздать  ·  Правильно оформить  ·  Поднять ратио!  
Lelya_K ®
Зам. Куратора Видео
RG Всё лучшее - детям!
 
Стаж: 4 года 3 мес.
Сообщений: 5538
Ratio: 7773,268
Раздал: 108,9 TB
Поблагодарили: 576230
100%
Откуда: Московская область
nnm-club.gif
Сообщение 24 Дек 2011 05:01:18  Заголовок сообщения: Ответить с цитатой

Сравнение с раздачей: Хочу как ты / The Change-Up (2011) HDRip
http://screenshotcomparison.com/comparison/99941/picture:0
smaxx27
Стаж: 4 года 4 мес.
Сообщений: 7
Ratio: 1,691
2.21%
russia.gif
Сообщение 24 Дек 2011 08:47:45  Заголовок сообщения: Ответить с цитатой

фильм суперский!!! спасибо)
PSVone
Стаж: 4 года 3 мес.
Сообщений: 5
Ratio: 5,973
0.99%
russia.gif
Сообщение 24 Дек 2011 10:17:54  Заголовок сообщения: Ответить с цитатой

:НГ_прыжок: ура!!!
sertikan
Стаж: 5 лет 3 мес.
Сообщений: 263
Ratio: 5,161
Поблагодарили: 2990
100%
Откуда: Смоленск
logo.gif
Сообщение 24 Дек 2011 16:54:01  Заголовок сообщения: Ответить с цитатой

Lelya_K
:цветок: за оперативность
cccp39
Стаж: 3 года 9 мес.
Сообщений: 691
Ratio: 371,987
100%
russia.gif
Сообщение 24 Дек 2011 19:31:45  Заголовок сообщения: Ответить с цитатой

Спасибо, посмотрю
Vladimir33
Стаж: 5 лет 7 мес.
Сообщений: 8
Ratio: 6,318
63.19%
Сообщение 24 Дек 2011 21:13:59  Заголовок сообщения: Ответить с цитатой

спасибо!
makellik
Стаж: 7 лет 2 мес.
Сообщений: 60
Ratio: 11,234
Поблагодарили: 1017
1.78%
Откуда: Соликамск
russia.gif
Сообщение 24 Дек 2011 22:18:45  Заголовок сообщения: Ответить с цитатой

отличный фильм!!!!!!!!!! 5+++
FINLAND567
Стаж: 5 лет 1 мес.
Сообщений: 58
Ratio: 6,813
0.69%
Сообщение 24 Дек 2011 22:45:33  Заголовок сообщения: Ответить с цитатой

отличный фильм ) рекомендую _)
gjhabhmtd
Стаж: 6 лет 9 мес.
Сообщений: 129
Ratio: 177,315
Раздал: 49,49 TB
100%
russia.gif
Сообщение 24 Дек 2011 23:50:44  Заголовок сообщения: Ответить с цитатой

фильм супер!!!
kosstosR
Стаж: 4 года
Сообщений: 24
Ratio: 1,75
62.24%
russia.gif
Сообщение 25 Дек 2011 13:56:51  Заголовок сообщения: Ответить с цитатой

Спасибо
Krr
Стаж: 8 лет 4 мес.
Сообщений: 360
Ratio: 3,206
Поблагодарили: 155
71.33%
Откуда: Беларусь
bcb.gif
Сообщение 25 Дек 2011 14:26:12  Заголовок сообщения: Ответить с цитатой

я давно не жду ничего хорошего от американских "комедий", но этот продукт затмил своим убожеством всю дрянь, которую я смотрел раньше. уровень "юмора" со старта пробил плинтус, пол, фундамент и устремился к центру Земли.
это самый мерзкий фильм, который я смотрел за последнее время. я даже спрыгиваю с раздачи, потому что раздавать эту шнягу просто не хочу.
Дорохов
Стаж: 3 года 9 мес.
Сообщений: 11
Ratio: 10,178
2.66%
russia.gif
Сообщение 25 Дек 2011 15:14:02  Заголовок сообщения: Ответить с цитатой

Нормально :супер!:
Mr.Voragus
Стаж: 4 года
Сообщений: 94
Ratio: 8,846
Поблагодарили: 42
37.54%
Сообщение 25 Дек 2011 19:34:20  Заголовок сообщения: Ответить с цитатой

весёлый фильм)))
spartak78
Стаж: 6 лет 2 мес.
Сообщений: 103
Ratio: 4,257
7.82%
russia.gif
Сообщение 25 Дек 2011 21:33:40  Заголовок сообщения: Ответить с цитатой

Любовь-Морковь-Начало))) Сюжет избит) Но ребята играют не плохо 6/10
Показать сообщения:   
Начать новую тему   Ответить на тему    Торрент-трекер NNM-Club -> Зарубежное кино -> Зарубежные Фильмы (HD*Rip/LQ, DVDRip, SATRip, VHSRip) Часовой пояс: GMT + 3
Страницы:  1, 2, 3, 4, 5, 6, 7  След.
Страница 1 из 7