Классический форум-трекер
canvas not supported
Нас вместе: 4 076 495

Отбросы / Плохие / Долбанутые / Misfits (2010) BDRip [720p] (сезон 2, 1-7 из 7) [Кубик в Кубе]


 
 
RSS
Начать новую тему   Ответить на тему    Торрент-трекер NNM-Club -> Зарубежные сериалы -> Отбросы / Misfits
Автор Сообщение
LuckyLord ®
Стаж: 8 лет 8 мес.
Сообщений: 2392
Ratio: 36,543
Раздал: 14,38 TB
Поблагодарили: 63497
100%
canada.gif
[font="Georgia"]Отбросы / Плохие / Долбанутые / Misfits (2010) BDRip [720p] (сезон 2, 1-7 из 7) [Кубик в Кубе]
Год выпуска: 2010
Страна: Великобритания
Жанр: Фантастика, Чёрная комедия

Перевод: Двуголосый закадровый, профессиональный
Озвучка / Автор перевода: Кубик в Кубе
Язык субтитров: Русские, Английские



Режиссер: Том Грин, Том Харпер, Чина Му-Ен
Актеры: Роберт Шиэн, Иван Реон, Лорен Соша, Антония Томас, Натан Стюарт-Джарретт, Алекс Рид, Рут Негга, Крэйг Паркинсон, Майкл Обиора, Анна Коваль, и др.

Описание фильма:
Келли, Натан, Кёртис, Алиша и Саймон выполняют общественные работы за совершение мелких преступлений. Они — не друзья. Более того, у них нет ничего общего. В группе постоянно происходят конфликты, споры и драки. Но в удивительный день во время сильного шторма сильная молния делает из них супергероев и наделяет их сверхвозможностями. Они понятия не имеют, что делать с этими сверхвозможностями. Более того, никто из них не рад своей новой силе, потому что она раскрывает их самые глубокие комплексы и тайны, которые бы они не хотели выставлять напоказ. Например, Келли, озабоченная общественным мнением о себе, получает способность читать чужие мысли, а у Кёртиса появляется способность возвращать прошлое. Ребята просто хотят побыстрее закончить свои исправительные работы и окунуться с головой в обычную жизнь тинейджеров. Но судьба им припасла еще одно задание, ведь после ужасного шторма в городе сверхспособностями стали обладать не только они одни…

Продолжительность: ~ 00:48:00 мин
Качество видео: BDRip 720p

Видеокодек: H.264
Битрейт видео: 25.000 fps, ~4208 Kbps
Размер кадра: 1280x720
Аудиокодек: AC3
Аудио Rus: 48 kHz, 2.0 ch, 192 kbps / Кубик в Кубе /
Аудио Eng: 48 kHz, 2.0 ch, 192 kbps / Оригинал /

|Все раздачи сериала на трекере|
Код: выделить все
Общее
Уникальный идентификатор         : 243827720596990178663511590901041465487 (0xB76F82C635BAD198ABBACD24D422088F)
Полное имя                       : C:\Users\Алексей\Desktop\Otbrosi.(2.sezon.1-7.serii.iz.7).x264.BDRip.720p.Kubik.v.Kube\Otbrosi.(2.sezon.1.seriya.iz.7).x264.BDRip.720p.Kubik.v.Kube.mkv
Формат                           : Matroska
Версия формата                   : Version 2
Размер файла                     : 1,52 Гбайт
Продолжительность                : 47 м.
Общий поток                      : 4594 Кбит/сек
Дата кодирования                 : UTC 2011-03-16 19:45:05
Программа кодирования            : mkvmerge v3.3.0 ('Language') built on Mar 24 2010 14:59:24
Библиотека кодирования           : libebml v0.8.0 + libmatroska v0.9.0

Видео
Идентификатор                    : 1
Формат                           : AVC
Формат/Информация                : Advanced Video Codec
Профиль формата                  : High@L4.1
Параметр CABAC формата           : Да
Параметр ReFrames формата        : 5 кадров
Идентификатор кодека             : V_MPEG4/ISO/AVC
Продолжительность                : 47 м.
Битрейт                          : 4208 Кбит/сек
Ширина                           : 1280 пикселей
Высота                           : 720 пикселей
Соотношение сторон               : 16:9
Частота кадров                   : 25,000 кадров/сек
Цветовое пространство            : YUV
Субдискретизация насыщенности    : 4:2:0
Битовая глубина                  : 8 бит
Тип развёртки                    : Прогрессивная
Бит/(Пиксели*Кадры)              : 0.183
Размер потока                    : 1,36 Гбайт (90%)
Библиотека кодирования           : x264 core 114 r1913 5fd3dce
Настройки программы              : cabac=1 / ref=5 / deblock=1:0:0 / analyse=0x3:0x133 / me=umh / subme=7 / psy=1 / psy_rd=1.00:0.00 / mixed_ref=1 / me_range=16 / chroma_me=1 / trellis=1 / 8x8dct=1 / cqm=0 / deadzone=21,11 / fast_pskip=0 / chroma_qp_offset=-2 / threads=12 / sliced_threads=0 / nr=0 / decimate=1 / interlaced=0 / constrained_intra=0 / bframes=3 / b_pyramid=2 / b_adapt=1 / b_bias=0 / direct=1 / weightb=1 / open_gop=0 / weightp=2 / keyint=250 / keyint_min=25 / scenecut=40 / intra_refresh=0 / rc_lookahead=40 / rc=2pass / mbtree=1 / bitrate=4208 / ratetol=1.0 / qcomp=0.60 / qpmin=0 / qpmax=69 / qpstep=4 / cplxblur=20.0 / qblur=0.5 / ip_ratio=1.40 / aq=1:1.00
Default                          : Да
Forced                           : Нет

Аудио #1
Идентификатор                    : 2
Формат                           : AC-3
Формат/Информация                : Audio Coding 3
Расширение режима                : CM (complete main)
Идентификатор кодека             : A_AC3
Продолжительность                : 47 м.
Вид битрейта                     : Постоянный
Битрейт                          : 192 Кбит/сек
Каналы                           : 2 канала
Расположение каналов             : Front: L R
Частота                          : 48,0 КГц
Битовая глубина                  : 16 бит
Метод сжатия                     : С потерями
Размер потока                    : 65,0 Мбайт (4%)
Язык                             : Russian
Default                          : Да
Forced                           : Нет

Аудио #2
Идентификатор                    : 3
Формат                           : AC-3
Формат/Информация                : Audio Coding 3
Расширение режима                : CM (complete main)
Идентификатор кодека             : A_AC3
Продолжительность                : 47 м.
Вид битрейта                     : Постоянный
Битрейт                          : 192 Кбит/сек
Каналы                           : 2 канала
Расположение каналов             : Front: L R
Частота                          : 48,0 КГц
Битовая глубина                  : 16 бит
Метод сжатия                     : С потерями
Размер потока                    : 65,0 Мбайт (4%)
Язык                             : English
Default                          : Нет
Forced                           : Нет

Текст #1
Идентификатор                    : 4
Формат                           : ASS
Идентификатор кодека             : S_TEXT/ASS
Идентификатор кодека/Информация  : Advanced Sub Station Alpha
Метод сжатия                     : Без потерь
Язык                             : Russian
Default                          : Нет
Forced                           : Нет

Текст #2
Идентификатор                    : 5
Формат                           : UTF-8
Идентификатор кодека             : S_TEXT/UTF8
Идентификатор кодека/Информация  : UTF-8 Plain Text
Язык                             : English
Default                          : Нет
Forced                           : Нет

Скриншоты:


Время раздачи: c 23:00 до 8:00 (до 5 сидов)
[NNM-Club.ru]_Misfits.S02.576p.BDRip-AVC.Rus.Eng.Subs.torrent
 Торрент: Платиновая раздача  Зарегистрирован
 
Скачать


 Зарегистрирован:   23 Дек 2011 14:11:13
 Размер:   10,6 GB  (
 Рейтинг:   4,8 (Голосов: 88)
 Поблагодарили:   217
 Проверка:   Оформление проверено модератором 24 Дек 2011 10:23:42
Как cкачать  ·  Как раздать  ·  Правильно оформить  ·  Поднять ратио!  
taggi
Стаж: 6 лет 10 мес.
Сообщений: 13
Ratio: 11,822
100%
ukraine.gif
Ради Нейтона только и стоит смотреть сериал!!!!
KaRDINaL2012
Стаж: 6 лет 4 мес.
Сообщений: 43
Ratio: 2,938
Раздал: 1,787 TB
Поблагодарили: 77
10.4%
Откуда: Ангарск
russia.gif
Дайте пожалуйста скорости.

_________________
CPU: AMD Ryzen™ 5 1600X 3.6GHz- 4GHz
Ram: Kigston HyperX Fury Black Series DDR4 - 3200 GHz 16GB
GPU: MSI Nvidia Geforce GTX 1060 6GB
Показать сообщения:   
Начать новую тему   Ответить на тему    Торрент-трекер NNM-Club -> Зарубежные сериалы -> Отбросы / Misfits Часовой пояс: GMT + 3
Страница 1 из 1