Интеллигентный торрент-трекер
Нас вместе: 3 641 446 | Новости торрент-трекера | Как тут скачивать? | Как раздавать торренты? | Правила оформления

Хи-Мен и Властелины Вселенной 2002 / He-Man and the Masters of the Universe 2002 [Сезоны 1-2 / Серии 1-39 (39)] (2002-2004) DVDRip [EN, Rus sub]


 
 
RSS
Начать новую тему   Ответить на тему    Торрент-трекер NNM-Club -> Архив торрентов -> Архив Мультфильмов
Предыдущая тема :: Следующая тема  
Автор Сообщение
spenden ®


Стаж: 4 года 8 месяцев
Сообщений: 137
Ratio: 178,204
Поблагодарили: 2512
100%
Откуда: Чехов
russia.gif

Сообщение 15 Дек 2011 18:09:07  Заголовок сообщения: Хи-Мен и Властелины Вселенной 2002 / He-Man and the Masters of the Universe 2002 [Сезоны 1-2 / Серии 1-39 (39)] (2002-2 Ответить с цитатой

[EN, Rus sub] Хи-Мен и Властелины Вселенной 2002 / He-Man and the Masters of the Universe 2002 [Сезоны 1-2 / Серии 1-39 (39)] (2002-2004) DVDRip
Год выпуска: 2002-2004
Жанр: Мультсериал, фэнтези, приключения

Язык: Английский

Описание:
В день своего 16-летия Адам, принц королевства Вечности, получает в распоряжение Меч Могущества – магический артефакт, превращающий его в Хи-Мена, защитника планеты. Вместе с Властелинами Вселенной, командой сорвиголов, и верным другом Боевым Котом, Хи-Мен ведет борьбу со Скелетом и его Воинами Зла, стремящимися захватить таинственный замок Серого Черепа и завладеть его секретами.

Доп. информация: He-Man 2002 - Bonus - тут находятся опенинги сериала и 1 трейлер. Двое субтитров к 1 опенингу и трейлеру.

Режиссер: Гэри Хартл / Gary Hartle

Продолжительность: 15:14:30 (39 х 23 мин.)
Перевод: субтитры

Релиз группа:
Алексис.........покупка дисков, рип, перевод
connor............тайминг
Epetuk1727....корректировка, перевод стихов

Язык субтитров: Русский
Вид субтитров: Отдельным файлом

Видеокодек: Xvid
Битрейт видео: ~1232 kbps avg, 0.18 bit/pixel
Размер кадра: 720x400 (1.80:1)
Качество видео: DVDRip
Аудиокодек: MP3, 2 ch
Битрейт аудио: ~128.00 kbps
Сезон 1
01. Начало, часть 1 / The Beginning - Part 1
02. Начало, часть 2 / The Beginning - Part 2
03. Начало, часть 3 / The Beginning - Part 3
04. Смелость Адама / The Courage of Adam
05. Небесная война / Skywar
06. В глубине / The Deep End
07. Уроки / Lessons
08. Песня сирены / The Siren's Song
09. Кровные узы / The Ties That Bind
10. Драконий выводок / Dragon's Brood
11. Разворот / Turnabout
12. Горечь Меканека / Mekaneck's Lament
13. Ночь темных зверей / Night of the Shadowbeasts
14. Подземный мир / Underworld
15. Монстр внутри / The Monster Within
16. Тайна Анват Гара / The Mystery of Anwat Gar
17. Гамбит Робото / Roboto's Gambit
18. Доверие / Trust
19. Сад Орко / Orko's Garden
20. Гордость Базз-Оффа / Buzz-Off's Pride
21. Змеиная яма / Snake Pit
22. Остров / The Island
23. Сладкий запах победы / The Sweet Smell of Victory
24. Разделение / Separation
25. Совет Зла, часть 1 / Council of Evil - Part 1
26. Совет Зла, часть 2 / Council of Evil - Part 2

Сезон 2
27. Последняя преграда / The Last Stand
28. Прогулка с драконами / To Walk with Dragons
29. Из прошлого / Out of the Past

Сезон 2 "Властелины Вселенной против людей-змей":
30. Восстание людей-змей, часть 1 / Rise of the Snakemen - Part 1
31. Восстание людей-змей, часть 2 / Rise of the Snakemen - Part 2
32. Цена обмана / The Price of Deceit
33. О машинах и людях / Of Machines and Men
34. Вторая кожа / Second Skin
35. Сила Серого Черепа / The Power of Grayskull
36. Паутина зла / Web of Evil
37. Шипение змеи / Rattle of the Snake
38. История / History
39. Пробуждение змея / Awaken the Serpent
Общее
Полное имя : He-Man 2002 - 1x01 - The Beginning (1) [FSG].avi
Формат : AVI
Формат/Информация : Audio Video Interleave
Размер файла : 227 Мбайт
Продолжительность : 23 м.
Общий поток : 1370 Кбит/сек
Программа кодирования : VirtualDubMod 1.5.4.1 (build 2066/release)
Библиотека кодирования : VirtualDubMod build 2066/release
Правообладатель : © 2010 FilmStore Group
IRIP : FilmStore Group

Видео
Идентификатор : 0
Формат : MPEG-4 Visual
Профиль формата : Advanced Simple@L5
Параметр BVOP формата : 2
Параметр QPel формата : Нет
Параметр GMC формата : Без точки перехода
Параметр матрицы формата : Выборочная
Режим смешивания : Сжатый битовый поток
Идентификатор кодека : DX50
Идентификатор кодека/Подсказка : DivX 5
Продолжительность : 23 м.
Битрейт : 1233 Кбит/сек
Ширина : 720 пикселей
Высота : 400 пикселей
Соотношение сторон : 16:9
Частота кадров : 23,976 кадра/сек
Цветовое пространство : YUV
Субдискретизация насыщенности : 4:2:0
Битовая глубина : 8 бит
Тип развёртки : Прогрессивная
Метод сжатия : С потерями
Бит/(Пиксели*Кадры) : 0.179
Размер потока : 204 Мбайт (90%)
Библиотека кодирования : XviD 1.2.1 (UTC 2008-12-04)

Аудио
Идентификатор : 1
Формат : MPEG Audio
Версия формата : Version 1
Профиль формата : Layer 3
Режим : Joint stereo
Расширение режима : MS Stereo
Идентификатор кодека : 55
Идентификатор кодека/Подсказка : MP3
Продолжительность : 23 м.
Вид битрейта : Постоянный
Битрейт : 128 Кбит/сек
Каналы : 2 канала
Частота : 48,0 КГц
Метод сжатия : С потерями
Размер потока : 21,2 Мбайт (9%)
Выравнивание : Соединение по промежуткам
Продолжительность промежутка : 42 мс. (1,00 видеокадр)
Время предзагрузки промежутка : 504 мс.
Скриншоты:




Время раздачи: Буду раздавать примерно до 15 сидов
[NNM-Club.ru]_he-man 2002.torrent
 Торрент: Серебряная раздча  Зарегистрирован
 
Примагнититься

Зарегистрируйтесь и скачайте торрент!
 Зарегистрирован:   15 Дек 2011 18:09:07
 Размер:   8,95 GB  (
 Рейтинг:   4,3 (Голосов: 12)
 Поблагодарили:   21
 Проверка:   Оформление проверено модератором 16 Дек 2011 13:44:20
Как cкачать  ·  Как раздать  ·  Правильно оформить  ·  Поднять ратио!  


Последний раз редактировалось: spenden (16 Дек 2011 12:49:31), всего редактировалось 4 раз(а)
Semi000


Стаж: 3 года 10 месяцев
Сообщений: 665
Ratio: 114,717
Раздал: 83,87 TB
100%
Откуда: планета Земля
russia.gif

Сообщение 19 Дек 2011 21:44:06  Заголовок сообщения: Ответить с цитатой

Жалко, что перевод только в субтитрах... :(
spenden ®


Стаж: 4 года 8 месяцев
Сообщений: 137
Ratio: 178,204
Поблагодарили: 2512
100%
Откуда: Чехов
russia.gif

Сообщение 19 Дек 2011 23:16:50  Заголовок сообщения: Ответить с цитатой

Semi000 писал(а): Перейти к сообщению
Жалко, что перевод только в субтитрах... :(

Не знаю, хороший мультфильм можно и с субтитрами посмотреть.
LeonidLuka


Стаж: 2 года 3 месяцa
Сообщений: 87
Ratio: 6,631
Поблагодарили: 457
89.76%
Откуда: XMAO
russia.gif

Сообщение 20 Дек 2011 02:16:51  Заголовок сообщения: Ответить с цитатой

А первые сезоны Будут ? до 2000 года?
spenden ®


Стаж: 4 года 8 месяцев
Сообщений: 137
Ratio: 178,204
Поблагодарили: 2512
100%
Откуда: Чехов
russia.gif

Сообщение 24 Дек 2011 15:47:32  Заголовок сообщения: Ответить с цитатой

Его в норм качестве полного нет, да и всех серий тоже. Если появится выложу.
murla​katam​ka​

Стаж: 3 года 3 месяцa
Сообщений: 10
Ratio: 2,752
100%
belarus.gif

Сообщение 08 Апр 2012 17:39:13  Заголовок сообщения: Ответить с цитатой

интересно, этот вариант мультсериала чем-то лучше предыдущей его вверсии 1983 года?
thorneus


Стаж: 3 года 2 месяцa
Сообщений: 20
Ratio: 13,026
Раздал: 7,959 TB
98.03%
micronesia.gif

Сообщение 10 Июл 2012 10:46:10  Заголовок сообщения: Ответить с цитатой

ну там песни нету, которая heyyeyaaeyaaaeyaeyaa

_________________
валера техновикинг
Сообщение 29 Авг 2013 14:34:06

Топик был перенесен из форума Зарубежные Мультсериалы в форум Архив Мультфильмов

Причина переноса: Seeder last seen: 2013-07-27
almikl
Показать сообщения:   
Начать новую тему   Ответить на тему    Торрент-трекер NNM-Club -> Архив торрентов -> Архив Мультфильмов Часовой пояс: GMT + 4
Страница 1 из 1