Интеллигентный торрент-трекер
Нас вместе: 3 747 554 | Новости торрент-трекера | Как тут скачивать? | Как раздавать торренты? | Правила оформления

Arena - The Seventh Degree Of Separation (2011) [FLAC|Lossless]<Progressive Rock>


 
 
RSS
Начать новую тему   Ответить на тему    Торрент-трекер NNM-Club -> Rock, Alternative, Punk, Metal -> Rock (Lossless)
Предыдущая тема :: Следующая тема  
Автор Сообщение
Shuran80 ®
Меценат
Свободный релизер
 


Стаж: 5 лет 5 месяцев
Сообщений: 2963
Ratio: 1192,446
Раздал: 78,41 TB
Поблагодарили: 150259
100%
Откуда: Ленинград
ussr.gif

Сообщение 20 Ноя 2011 15:09:02  Заголовок сообщения: Arena - The Seventh Degree Of Separation (2011) [FLAC|Lossless]<Progressive Rock> Ответить с цитатой

Arena - The Seventh Degree Of Separation (2011)
Год: 2011
Жанр: Progressive Rock
Страна: Великобритания
Продолжительность: 00:56:02

Издатель: Verglas
Номер по каталогу: VGCD032
Кодек: FLAC (image+.cue)
Битрейт: Lossless

Трек лист:
01. The Great Escape (4:38)
02. Rapture (4:23)
03. One Last Au Revoir (4:35)
04. The Ghost Walks (3:19)
05. Thief Of Souls (3:52)
06. Close Your Eyes (3:26)
07. Echoes Of The Fall (2:27)
08. Bed Of Nails (4:39)
09. What If ? (4:36)
10. Trebuchet (3:40)
11. Burning Down (4:29)
12. Catching The Bullet (7:43)
13. The Tinder Box (4:17)
Код:

Exact Audio Copy V0.99 prebeta 5 from 4. May 2009

EAC extraction logfile from 15. November 2011, 16:09

Arena / The Seventh Degree Of Separation

Used drive  : HL-DT-STDVDRAM GSA-4167B   Adapter: 0  ID: 0

Read mode               : Secure
Utilize accurate stream : Yes
Defeat audio cache      : Yes
Make use of C2 pointers : No

Read offset correction                      : 667
Overread into Lead-In and Lead-Out          : No
Fill up missing offset samples with silence : Yes
Delete leading and trailing silent blocks   : No
Null samples used in CRC calculations       : Yes
Used interface                              : Native Win32 interface for Win NT & 2000

Used output format              : User Defined Encoder
Selected bitrate                : 1024 kBit/s
Quality                         : High
Add ID3 tag                     : No
Command line compressor         : C:\Program Files\Exact Audio Copy\Flac\flac.exe
Additional command line options : -T "artist=%a" -T "title=%t" -T "album=%g" -T "date=%y" -T "tracknumber=%n" -T "genre=%m"

TOC of the extracted CD

     Track |   Start  |  Length  | Start sector | End sector
    ---------------------------------------------------------
        1  |  0:00.00 |  4:38.14 |         0    |    20863
        2  |  4:38.14 |  4:22.47 |     20864    |    40560
        3  |  9:00.61 |  4:34.45 |     40561    |    61155
        4  | 13:35.31 |  3:19.00 |     61156    |    76080
        5  | 16:54.31 |  3:52.09 |     76081    |    93489
        6  | 20:46.40 |  3:25.59 |     93490    |   108923
        7  | 24:12.24 |  2:26.49 |    108924    |   119922
        8  | 26:38.73 |  4:39.08 |    119923    |   140855
        9  | 31:18.06 |  4:35.69 |    140856    |   161549
       10  | 35:54.00 |  3:39.70 |    161550    |   178044
       11  | 39:33.70 |  4:29.06 |    178045    |   198225
       12  | 44:03.01 |  7:42.61 |    198226    |   232936
       13  | 51:45.62 |  4:16.57 |    232937    |   252193

Range status and errors

Selected range

     Filename C:\byYurek\Arena - The Seventh Degree of Separation '11\Arena - The Seventh Degree Of Separation.wav

     Peak level 99.9 %
     Range quality 99.9 %
     Test CRC 4A1038C4
     Copy CRC 4A1038C4
     Copy OK

No errors occurred

AccurateRip summary

Track  1  not present in database
Track  2  not present in database
Track  3  not present in database
Track  4  not present in database
Track  5  not present in database
Track  6  not present in database
Track  7  not present in database
Track  8  not present in database
Track  9  not present in database
Track 10  not present in database
Track 11  not present in database
Track 12  not present in database
Track 13  not present in database

None of the tracks are present in the AccurateRip database

End of status report
Код:

-----------------------

DON'T MODIFY THIS FILE

-----------------------

PERFORMER: auCDtect Task Manager, ver. 1.5.1RC4 build 1.5.1.5
Copyright (c) 2008-2010 y-soft. All rights reserved
http://y-soft.org

ANALYZER: auCDtect: CD records authenticity detector, version 0.8.2
Copyright (c) 2004 Oleg Berngardt. All rights reserved.
Copyright (c) 2004 Alexander Djourik. All rights reserved.

FILE: Arena - The Seventh Degree Of Separation.flac
  Size: 429191715 Hash: 5B355F4540388FC0FB927A3DDE257FCC Accuracy: -m0
  Conclusion: CDDA 100%
  Signature: 654F4D42A682D49AAD995D491A3E8953401FBCC9
Arena - прогрессив рок группа из Великобритании, образованная в 1995 году.

Состав:
Paul Manzi - вокал
Clive Nolan - клавишные, бэк-вокал
John Mitchell - гитара, бэк-вокал
John Jowitt - бас
Mick Pointer - ударные

Оф. сайт группы
За предоставленный материал спасибо yurek

Время раздачи: Обычно с 19:00 до 00:00 :спит:
[NNM-Club.ru]_Arena - The Seventh Degree Of Separation (2011) FLAC.torrent
 Торрент: Золотая раздача  Зарегистрирован
 


Зарегистрируйтесь и скачайте торрент!
 Зарегистрирован:   20 Ноя 2011 15:09:02
 Размер:   419 MB  (
 Рейтинг:   4,8 (Голосов: 12)
 Поблагодарили:   27
 Проверка:   Оформление проверено модератором 20 Ноя 2011 22:20:47
Как cкачать  ·  Как раздать  ·  Правильно оформить  ·  Поднять ратио!  

_________________
МОИ РЕЛИЗЫ
sch55


Стаж: 3 года 10 месяцев
Сообщений: 396
Ratio: 1600,601
100%
logo.gif

Сообщение 22 Ноя 2011 03:05:53  Заголовок сообщения: Ответить с цитатой

Shuran80
Спасибо за релиз! Мне понравилось...

_________________
"Даже идеи марксизма-ленинизма выглядят вполне безобидно, если их рассказывать где-нибудь в Арканзасе, со сцены, на киргизском языке и под музыку."
Д. Х. Шварц. По следу орла
Danium

Стаж: 3 года 6 месяцев
Сообщений: 6
Ratio: 2,491
9.6%
russia.gif

Сообщение 26 Ноя 2011 00:52:34  Заголовок сообщения: Ответить с цитатой

Мне тоже....
Спасибо!
Показать сообщения:   
Начать новую тему   Ответить на тему    Торрент-трекер NNM-Club -> Rock, Alternative, Punk, Metal -> Rock (Lossless) Часовой пояс: GMT + 4
Страница 1 из 1