Интеллигентный торрент-трекер
canvas not supported
Нас вместе: 4 138 503

Отбросы / Плохие / Долбанутые / Misfits (2011) WEB-DLRip [720p] (Сезон 3, серии 1-8 из 8) [Кубик в кубе]


Страницы:   Пред.  1, 2 
 
RSS
Начать новую тему   Ответить на тему    Торрент-трекер NNM-Club -> Зарубежные сериалы -> Отбросы / Misfits
Автор Сообщение
hdsh ®
ИгроКлуб
Стаж: 6 лет 5 мес.
Сообщений: 1677
Ratio: 36,72
Поблагодарили: 194658
100%
Откуда: Seito
italy.gif
Отбросы / Плохие / Долбанутые / Misfits (2011) WEB-DLRip [720p] (Сезон 3, серии 1-8 из 8) [Кубик в кубе]
Год выпуска: 2011
Производство: Великобритания
Жанр: Комедия, Фантастика

Продолжительность: ~ 00:45:00 минут серия

Перевод: Профессиональный двухголосый закадровый -
Субтитры: Англ, рус

Режиссер: Том Грин, Том Харпер
Актеры: Иван Реон, Лорен Соча, Натан Стюарт-Джарретт, Антония Томас, Роберт Шиэн

Описание фильма:
Пятерых неудачников, трудящихся на общественных работах, во время разразившегося шторма поражает молнией, после чего они замечают, что с ними что-то не так. Жесткая Келли (Лорен Соча) внезапно начала слышать мысли людей, пристыженный спортивный герой Кёртис (Нейтан Стюарт-Джарретт) обнаруживает, что у него есть способность повернуть время вспять, когда он о чем-либо сожалеет, тусовщица Алиша (Антония Томас) может вызывать у человека сексуальное безумство одним прикосновением. Даже крайне застенчивый Саймон (Иван Реон) может сделать себя невидимым, когда он чувствует, что его игнорируют окружающие, и именно этот факт не дает покоя самоуверенному Нейтану (Роберт Шиэн), который в будущем поймёт что он бессмертный. Вместо восхищения герои постепенно понимают, что все эти новые сверхспособности, которые им не особо то были и нужны, не дар свыше, а тяжелая ноша, приносящая душевную боль в их и так не очень успешные жизни.
Релиз группа:
Внимание: Сериал содержит ненормативную лексику

Качество: WEB-DL 720p
Видео кодек: H.264
Аудио кодек: AC3
Видео: 1280x720 (1.77:1), 25 fps, ~4000 kbps avg, 0.18 bit/pixel
Аудио Rus: 48 kHz, 2 ch, ~192.00 kbps avg
Аудио Eng: 48 kHz, 2 ch, ~192.00 kbps avg
  • Общее
    Уникальный идентификатор : 216643396194761322670910507943272216765 (0xA2FC001A1E1EEF8D9E83C5BD01E178BD)
    Полное имя : J:\Релизы\Misfits_[S03]_[WEB-DLRip 720p]_(Kubik v Kube)\Misfits.S03E01.720p.WEB-DL.Rus.Eng.HDCLUB.mkv
    Формат : Matroska
    Версия формата : Version 2
    Размер файла : 1,48 Гбайт
    Продолжительность : 47 м.
    Общий поток : 4481 Кбит/сек
    Название фильма : Misfits (2011) S03E01 – Release for HDCLUB
    Дата кодирования : UTC 2011-11-01 14:14:20
    Программа кодирования : mkvmerge v5.0.1 ('Es ist Sommer') built on Oct 9 2011 11:55:43
    Библиотека кодирования : libebml v1.2.2 + libmatroska v1.3.0

  • Видео
    Идентификатор : 1
    Формат : AVC
    Формат/Информация : Advanced Video Codec
    Профиль формата : Main@L3.1
    Параметр CABAC формата : Нет
    Параметр ReFrames формата : 2 кадра
    Идентификатор кодека : V_MPEG4/ISO/AVC
    Продолжительность : 47 м.
    Битрейт : 4008 Кбит/сек
    Ширина : 960 пикселей
    Высота : 720 пикселей
    Соотношение сторон : 16:9
    Частота кадров : 25,000 кадров/сек
    Цветовое пространство : YUV
    Субдискретизация насыщенности : 4:2:0
    Битовая глубина : 8 бит
    Тип развёртки : Прогрессивная
    Бит/(Пиксели*Кадры) : 0.232
    Размер потока : 1,32 Гбайт (89%)
    Заголовок : Misfits (2011) S03E01 – Release for HDCLUB
    Язык : English
    Основные цвета : BT.709-5, BT.1361, IEC 61966-2-4, SMPTE RP177
    Характеристики трансфера : BT.709-5, BT.1361
    Коэффициенты матрицы : BT.709-5, BT.1361, IEC 61966-2-4 709, SMPTE RP177

  • Аудио #1
    Идентификатор : 2
    Формат : AC-3
    Формат/Информация : Audio Coding 3
    Расширение режима : CM (complete main)
    Идентификатор кодека : A_AC3
    Продолжительность : 47 м.
    Вид битрейта : Постоянный
    Битрейт : 192 Кбит/сек
    Каналы : 2 канала
    Расположение каналов : Front: L R
    Частота : 48,0 КГц
    Битовая глубина : 16 бит
    Метод сжатия : С потерями
    Размер потока : 64,9 Мбайт (4%)
    Заголовок : AC3 2.0 @ 192 kbps – двухголосый закадровый (студия «Кубик в Кубе»)
    Язык : Russian

  • Аудио #2
    Идентификатор : 3
    Формат : AC-3
    Формат/Информация : Audio Coding 3
    Расширение режима : CM (complete main)
    Идентификатор кодека : A_AC3
    Продолжительность : 47 м.
    Вид битрейта : Постоянный
    Битрейт : 192 Кбит/сек
    Каналы : 2 канала
    Расположение каналов : Front: L R
    Частота : 48,0 КГц
    Битовая глубина : 16 бит
    Метод сжатия : С потерями
    Размер потока : 64,9 Мбайт (4%)
    Заголовок : AC3 2.0 @ 192 kbps
    Язык : English

  • Текст #1
    Идентификатор : 4
    Формат : UTF-8
    Идентификатор кодека : S_TEXT/UTF8
    Идентификатор кодека/Информация : UTF-8 Plain Text
    Язык : Russian

  • Текст #2
    Идентификатор : 5
    Формат : UTF-8
    Идентификатор кодека : S_TEXT/UTF8
    Идентификатор кодека/Информация : UTF-8 Plain Text
    Язык : English


Сериал "Отбросы" на трекере NNM-Club:
Время раздачи: По мере возможности...
Не забываем говорить
 Торрент: Платиновая раздача  Зарегистрирован
 
Скачать


 Зарегистрирован:   22 Дек 2011 12:14:35
 Размер:   11,7 GB  (
 Рейтинг:   4,8 (Голосов: 208)
 Поблагодарили:   564
 Проверка:   Оформление проверено модератором 22 Дек 2011 12:25:50
Как cкачать  ·  Как раздать  ·  Правильно оформить  ·  Поднять ратио!  
lTaPaHl
Стаж: 6 лет 9 мес.
Сообщений: 1
Ratio: 0,843
100%
Откуда: Ukraine
ukraine.gif
норм тип играе, не спорю что Нейтон классный был, но на замену тоже нормальный подобрали, и сценарий норм ему написали.......
GunBum
Стаж: 8 лет 1 мес.
Сообщений: 97
Ratio: 8,933
6.33%
Руди конечно тоже тип забавный, но Нэйтон - это Нэйтон, без него сериал немного прогнулся, но тем не менее тоже отличный сезон, спасибо за раздачу :)
Hollyho
Стаж: 6 лет 7 мес.
Сообщений: 1
Ratio: 6,026
100%
классный сериал!
Wise_​Maste​r​
Стаж: 4 года 9 мес.
Сообщений: 6
Ratio: 1,111
100%
Откуда: Архангел
russia.gif
Дааайте скорости!!! 8-10 кб/с не айс качать...
Показать сообщения:   
Начать новую тему   Ответить на тему    Торрент-трекер NNM-Club -> Зарубежные сериалы -> Отбросы / Misfits Часовой пояс: GMT + 3
Страницы:   Пред.  1, 2
Страница 2 из 2

День смеха и юмора отмечается 1 апреля. В этот день принято шутить и разыгрывать друзей, коллег по работе, домашних, словом всех, с кем Вам предстоит увидеться в этот праздник – первое апреля. Первоапрельские розыгрыши, приколы на 1 апреля, первоапрельские шутки должны быть веселыми и безобидными. Приколы на 1 апреля, как правило, удаются в том случае, если человек забыл какой сегодня месяц и день, словом, забыл про 1 апреля – день смеха, шуток, день дурака.

Желаем Вам много улыбок и хорошего настроения в этот день!
С Уважением, администрация NNM-Club :)