Интеллигентный торрент-трекер
canvas not supported
Нас вместе: 4 410 455

C.C.Catch - Catch The Hits - Ultimate video collection (2005) DVDRip


 
 
RSS
Начать новую тему   Ответить на тему    Торрент-трекер NNM-Club -> Театр и Музыкальное видео -> Музыкальные клипы
Автор Сообщение
ab5144 ®
Стаж: 5 лет 4 мес.
Сообщений: 2563
Ratio: 95,138
Поблагодарили: 216519
100%
C.C.Catch - Catch The Hits - Ultimate video collection (2005) DVDRip
Название: C.C.Catch - Catch The Hits - Ultimate video collection
Год выпуска: 2005
Жанр: Музыка
Описание фильма:
Сборник видеоклипов популярной и легендарной певицы 80-х, 90-х C.C.Catch.
01. Baby I Need Your Love
02. Backseat Of Your Cadillac
03. Big Time
04. Cause You Are Young
05. Heartbreak Hotel
06. Heaven And Hell
07. House Of Mystic Lights
08. Midnight Hour
09. Soul Survivor
10. Strangers By Night
11. Summer Kisses
Продолжительность: 00:37:50
Перевод: Отсутствует

Видеокодек: DivX 4/5/6
Битрейт видео: ~1013 kbps avg
Размер кадра: 480x368 25.00fps
Качество видео: DVDRip
Аудиокодек: MP3, 2 channels
Битрейт аудио: 320 Kbps, 48.0 KHz
General
Complete name : C.C.Catch.Clips.DVDRip\CC Catch - Cause You Are Young.avi
Format : AVI
Format/Info : Audio Video Interleave
File size : 31.0 MiB
Duration : 3mn 14s
Overall bit rate : 1 341 Kbps
Writing application : VirtualDubMod 1.5.4.1 (build 2178/release)
Writing library : VirtualDubMod build 2178/release

Video
ID : 0
Format : MPEG-4 Visual
Format settings, BVOP : 1
Format settings, QPel : No
Format settings, GMC : No warppoints
Format settings, Matrix : Default (H.263)
Muxing mode : Packed bitstream
Codec ID : DX50
Codec ID/Hint : DivX 5
Duration : 3mn 14s
Bit rate : 1 013 Kbps
Width : 480 pixels
Height : 368 pixels
Display aspect ratio : 4:3
Frame rate : 25.000 fps
Color space : YUV
Chroma subsampling : 4:2:0
Bit depth : 8 bits
Scan type : Progressive
Compression mode : Lossy
Bits/(Pixel*Frame) : 0.229
Stream size : 23.4 MiB (76%)
Writing library : DivX 6.2.5 (UTC 2006-07)

Audio
ID : 1
Format : MPEG Audio
Format version : Version 1
Format profile : Layer 3
Mode : Joint stereo
Codec ID : 55
Codec ID/Hint : MP3
Duration : 3mn 14s
Bit rate mode : Constant
Bit rate : 320 Kbps
Channel(s) : 2 channels
Sampling rate : 48.0 KHz
Compression mode : Lossy
Stream size : 7.40 MiB (24%)
Alignment : Aligned on interleaves
Interleave, duration : 80 ms (2.00 video frames)
Interleave, preload duration : 504 ms
Writing library : LAME3.97b
Encoding settings : -m j -V 4 -q 2 -lowpass 20.5
Скриншоты:


Время раздачи: 24/7 до 5 скачавших
[NNM-Club.ru]_C.C.Catch.Catch The Hits.DVDRip.torrent
 Торрент: Золотая раздача  Зарегистрирован
 
Примагнититься

Зарегистрируйтесь и скачайте торрент!
14,8 KB
 Зарегистрирован:   20 Сен 2011 10:11:24
 Размер:   357 MB  (
 Рейтинг:   4,7 (Голосов: 53)
 Поблагодарили:   132
 Проверка:   Оформление проверено модератором 20 Сен 2011 12:26:28
Как cкачать  ·  Как раздать  ·  Правильно оформить  ·  Поднять ратио!  
TopMeneger
Стаж: 5 лет 7 мес.
Сообщений: 37
Ratio: 31,397
100%
первый скрин весьма интересный. спасибо.
necro​mant-​76​
 
Стаж: 6 лет 3 мес.
Сообщений: 769
Ratio: 137,876
Раздал: 40,86 TB
Поблагодарили: 414
100%
Откуда: Новос​ибирс​к​
ussr.gif
Насчет Dvdrip - большие сомнения, скорее всего просто коллекция клипов. И клипы НЕ ВСЕ!
Навскидку могу сказать: "Are you man enough", например, отсутствует.

_________________
ab5144 ®
Стаж: 5 лет 4 мес.
Сообщений: 2563
Ratio: 95,138
Поблагодарили: 216519
100%
necromant-76 писал(а): Перейти к сообщению
Насчет Dvdrip - большие сомнения, скорее всего просто коллекция клипов. И клипы НЕ ВСЕ!
Навскидку могу сказать: "Are you man enough", например, отсутствует.

есть сомнения не забирайте (не неволю) "Are you man enough" есть здесь
.:TESTER:.
Стаж: 6 лет 4 мес.
Сообщений: 171
Ratio: 404,484
85.71%
C.C.Catch Рулит Автору пасиб
ukilonherq
Стаж: 5 лет 7 мес.
Сообщений: 82
Ratio: 59,484
Поблагодарили: 1125
100%
Откуда: у Америки и Японии такие техно​логии​?​
bhutan.gif
Скорость, как котэ наплакал(( максимум 2 кб/с..... (

_________________
Меня просто поражает, как люди в нашей жизни доверчивы. Готовы верить всему, кроме здравого смысла. © Зверёныш
Moorre
Uploaders 100+
 
Стаж: 6 лет 8 мес.
Сообщений: 280
Ratio: 20K
Раздал: 181,7 TB
Поблагодарили: 906
100%
Откуда: Москва
russia.gif
ukilonherq согласен, так до окончания фрилича и не успеем докачать. жаль. хотябы одному пусть скорость нормальная проскочила бы, ведь осталось каких-то 40% ~140 Mb, а там и все остальные быстро бы докачали!

_________________
Download = 100 Mbit, Upload = 100 Mbit
Использую uT MAC 1.8.7 41266
Показать сообщения:   
Начать новую тему   Ответить на тему    Торрент-трекер NNM-Club -> Театр и Музыкальное видео -> Музыкальные клипы Часовой пояс: GMT + 3
Страница 1 из 1