Интеллигентный торрент-трекер
Нас вместе: 3 603 246 | Новости торрент-трекера | Как тут скачивать? | Как раздавать торренты? | Правила оформления

Скачать бесплатно торрент Andy Blueman - Sea Tides E.P. (2009) [FLAC|Lossless]<Uplifting Trance with classical/film score elements> torrent download


 
 
RSS
Начать новую тему   Ответить на тему    Торрент-трекер NNM-Club -> Electronic -> Trance (Lossless)
Предыдущая тема :: Следующая тема 
Автор Сообщение
sazmw ®


Стаж: 5 лет 5 мес.
Сообщений: 288
Ratio: 63K
Раздал: 32,76 TB
Поблагодарили: 5039
100%
Откуда: Новосибирск
russia.gif

Сообщение 19 Сен 2011 18:29:32  Заголовок сообщения: Andy Blueman - Sea Tides E.P. (2009) [FLAC|Lossless]<Uplifting Trance with classical/film score elements> Ответить с цитатой

Andy Blueman - Sea Tides E.P. (2009)
Год: 2009
Жанр: Uplifting Trance with classical/film score elements
Продолжительность: 00:53:53

Кодек: FLAC
Битрейт: Lossless

Трек лист:
1. Sea Tides (Original mix) (8:48)
2. Neverland (Original Mix) (9:23)
3. Everlasting (Original Mix) (8:43)
4. Sea Tides (Energetic Mix) (8:48)
5. Neverland (Energetic Mix) (9:23)
6. Everlasting (Emotional Mix) (8:48)
Код:

Exact Audio Copy V0.99 prebeta 4 from 23. January 2008

EAC extraction logfile from 19. February 2009, 18:03

Andy Blueman / Sea Tides EP

Used drive  : LITE-ON DVDRW LH-20A1H   Adapter: 0  ID: 0

Read mode               : Secure
Utilize accurate stream : Yes
Defeat audio cache      : Yes
Make use of C2 pointers : No

Read offset correction                      : 6
Overread into Lead-In and Lead-Out          : No
Fill up missing offset samples with silence : Yes
Delete leading and trailing silent blocks   : No
Null samples used in CRC calculations       : Yes
Used interface                              : Native Win32 interface for Win NT & 2000
Gap handling                                : Appended to previous track

Used output format : Internal WAV Routines
Sample format      : 44.100 Hz; 16 Bit; Stereo

TOC of the extracted CD

     Track |   Start  |  Length  | Start sector | End sector
    ---------------------------------------------------------
        1  |  0:00.00 |  8:48.72 |         0    |    39671
        2  |  8:48.72 |  9:23.56 |     39672    |    81952
        3  | 18:12.53 |  8:43.72 |     81953    |   121249
        4  | 26:56.50 |  8:48.72 |    121250    |   160921
        5  | 35:45.47 |  9:23.56 |    160922    |   203202
        6  | 45:09.28 |  8:48.53 |    203203    |   242855

Track  1

     Filename C:\Documents and Settings\All Users\Documents\01-Andy_Blueman_-_Sea_Tides_(Original_Mix).wav

     Pre-gap length  0:00:02.00

     Peak level 100.0 %
     Track quality 99.9 %
     Test CRC C7BA821A
     Copy CRC C7BA821A
     Copy OK

Track  2

     Filename C:\Documents and Settings\All Users\Documents\02-Andy_Blueman_-_Neverland_(Original_Mix).wav

     Pre-gap length  0:00:02.00

     Peak level 100.0 %
     Track quality 100.0 %
     Test CRC 0F2E72E0
     Copy CRC 0F2E72E0
     Copy OK

Track  3

     Filename C:\Documents and Settings\All Users\Documents\03-Andy_Blueman_-_Everlasting_(Original_Mix).wav

     Pre-gap length  0:00:02.00

     Peak level 100.0 %
     Track quality 99.9 %
     Test CRC 97759AC9
     Copy CRC 97759AC9
     Copy OK

Track  4

     Filename C:\Documents and Settings\All Users\Documents\04-Andy_Blueman_-_Sea_Tides_(Energetic_Mix).wav

     Pre-gap length  0:00:02.00

     Peak level 99.9 %
     Track quality 99.9 %
     Test CRC 5B435980
     Copy CRC 5B435980
     Copy OK

Track  5

     Filename C:\Documents and Settings\All Users\Documents\05-Andy_Blueman_-_Neverland_(Energetic_Mix).wav

     Pre-gap length  0:00:02.00

     Peak level 100.0 %
     Track quality 100.0 %
     Test CRC DBC5D996
     Copy CRC DBC5D996
     Copy OK

Track  6

     Filename C:\Documents and Settings\All Users\Documents\06-Andy_Blueman_-_Everlasting_(Emotional_Mix).wav

     Pre-gap length  0:00:02.00

     Peak level 100.0 %
     Track quality 100.0 %
     Test CRC 4DEA4CFE
     Copy CRC 4DEA4CFE
     Copy OK

No errors occurred

End of status report
Код:

-----------------------

DON'T MODIFY THIS FILE

-----------------------

PERFORMER: auCDtect Task Manager, ver. 1.5.1RC2 build 1.5.1.3
Copyright (c) 2008-2010 y-soft. All rights reserved
http://y-soft.org

ANALYZER: auCDtect: CD records authenticity detector, version 0.8.2
Copyright (c) 2004 Oleg Berngardt. All rights reserved.
Copyright (c) 2004 Alexander Djourik. All rights reserved.

FILE: 06-andy_blueman-everlasting__emotional_mix-minimal.flac
  Size: 72409046 Hash: 2F887BA9B1891F37BBDCD7B264FF6065 Accuracy: -m0
  Conclusion: CDDA 100%
  Signature: EC3A637B18E9E8939A3EF3C2545F714D58AC0389
FILE: 05-andy_blueman-neverland__energetic_mix-minimal.flac
  Size: 77293886 Hash: D8098031ABCA26ED425C2282CEC4E2BA Accuracy: -m0
  Conclusion: CDDA 100%
  Signature: B56E30F7CA9A4FD6CA45BE4179FE906BA5D166F8
FILE: 04-andy_blueman-sea_tides__energetic_mix-minimal.flac
  Size: 72843950 Hash: B0129297A1911CB5965AAEF5171399F1 Accuracy: -m0
  Conclusion: CDDA 99%
  Signature: 5D32F60D200C9FBB21FEBDF5EFD3436DD0DC71C1
FILE: 03-andy_blueman-everlasting__original_mix-minimal.flac
  Size: 71920650 Hash: 5242F82585F14DCC56E372C6B14EAA71 Accuracy: -m0
  Conclusion: CDDA 100%
  Signature: A44DD36666B5E10EC0E7941336B26E52B5BAA39F
FILE: 02-andy_blueman-neverland__original_mix-minimal.flac
  Size: 77698128 Hash: EA327F4EA0239F83174B04281C3E3C02 Accuracy: -m0
  Conclusion: CDDA 100%
  Signature: 1D7F8809D9667B4DEC7C54586B958AD499DCC746
FILE: 01-andy_blueman-sea_tides__original_mix-minimal.flac
  Size: 70950580 Hash: CD8617C3458C0FD9E1269DB0D25F385A Accuracy: -m0
  Conclusion: CDDA 99%
  Signature: 2B8F6948E68B4974515B21A10F58B15BBCFC3C0B
Время раздачи: 24/7
[NNM-Club.ru]_Andy_Blueman-Sea_Tides_EP.torrent
 Торрент: Золотая раздача  Зарегистрирован
 


Зарегистрируйтесь и скачайте торрент!
 Зарегистрирован:   19 Сен 2011 18:29:32
 Размер:   423 MB  (
 Рейтинг:   4,6 (Голосов: 14)
 Поблагодарили:   33
 Проверка:   Оформление проверено модератором 19 Сен 2011 19:00:21
Как cкачать  ·  Как раздать  ·  Правильно оформить  ·  Поднять ратио!  

_________________
«Fiat justitia, pereat mundus» — «Да свершится правосудие, даже если от этого погибнет весь мир»
Tranc​e_&am​p;_Pr​ogres​sive​


Стаж: 3 года 6 мес.
Сообщений: 228
Ratio: 3,721
Поблагодарили: 2088
100%
Откуда: Kingdom of the Netherlands
netherlands.gif

Сообщение 19 Сен 2011 20:03:58  Заголовок сообщения: Ответить с цитатой

Даже странно, 57 просмотров и никто не откомментил, и не поблагодарил... Андрей К. прекрасный музыкант. Его творчество для настоящих ценителей аплифтингово трансового звучания! На таком крупном трекере, как ННМ, должна быть как минимум его дискография... sazmw, благодарю тебя за данный альбом в лосслесс! Сидируй!

_________________
Formalin

Стаж: 3 года 11 мес.
Сообщений: 96
Ratio: 1,818
Раздал: 893 GB
71.64%
ukraine.gif

Сообщение 19 Сен 2011 21:37:51  Заголовок сообщения: Ответить с цитатой

А я вот только увидел эту раздачу... прослушаю обязательно дополню комментариями! ) А автору и так спасибо, за то что раздача уже в losseless! )
CONSTTT


Стаж: 4 года 6 мес.
Сообщений: 59
Ratio: 15,154
Раздал: 1,498 TB
90.53%
Откуда: Питер
russia.gif

Сообщение 20 Сен 2011 13:59:33  Заголовок сообщения: Ответить с цитатой

sazmw
СПАСИБО!

_________________
sazmw ®


Стаж: 5 лет 5 мес.
Сообщений: 288
Ratio: 63K
Раздал: 32,76 TB
Поблагодарили: 5039
100%
Откуда: Новосибирск
russia.gif

Сообщение 11 Апр 2012 15:51:59  Заголовок сообщения: Ответить с цитатой

Пожалуйста! Всем приятного прослушивания!

_________________
«Fiat justitia, pereat mundus» — «Да свершится правосудие, даже если от этого погибнет весь мир»
svsquirk


Стаж: 4 года 11 мес.
Сообщений: 16
Ratio: 4,535
4.31%

Сообщение 09 Янв 2013 01:20:19  Заголовок сообщения: Ответить с цитатой

Спасибо огромное, я его творчество еще помню по игре Xtreme Tankz Madness - там были его треки, которые он писал под псевдонимом XeeGee.
DreamShifter[Remix] очень нравился, помню :)
Dimo4kaaa


Стаж: 2 года
Сообщений: 36
Ratio: 4,858
Раздал: 847 GB
Поблагодарили: 30
100%
Откуда: Крым

Сообщение 31 Мар 2013 09:27:30  Заголовок сообщения: Ответить с цитатой

Спасибо :супер!:
Показать сообщения:   
Начать новую тему   Ответить на тему    Торрент-трекер NNM-Club -> Electronic -> Trance (Lossless) Часовой пояс: GMT + 4
Страница 1 из 1