Классический форум-трекер
canvas not supported
Нас вместе: 4 065 124

Старик Хоттабыч (1956) HDRip


Страницы:  1, 2  След. 
 
RSS
Начать новую тему   Ответить на тему    Торрент-трекер NNM-Club -> Видео -> Отечественные Фильмы для детей
Автор Сообщение
SKVSM ®
Покровитель талантов
Uploader 100+
 
Стаж: 8 лет 1 мес.
Сообщений: 1052
Ratio: 282,733
Поблагодарили: 19646
100%
nnm-club.gif
Старик Хоттабыч (1956) HDRip
Год выпуска: 1956
Жанр: Сказка, Детский, Семейный

Описание:
12-летний московский школьник Волька, купаясь в Москва-реке, находит какой-то древний запечатанный сосуд. Мальчишеское любопытство настолько сильно, что при первом же удобном случае Волька вскрывает его, и из сосуда появляется сказочный джинн — Гассан Абдурахман ибн Хоттаб. За то, что Волька спас его от двухтысячелетнего заточения, джинн, прозванный мальчиком Хоттабычем, становится его верным слугой. Он пытается задарить мальчика, пригнав к его дому целый караван верблюдов с несметными сокровищами. Вместе они совершат увлекательный полет в Индию на волшебном ковре-самолете…

Полная реставрация изображения и звука. Исходные киноматериалы подготовлены Госфильмофондом России. Покадровая цифровая реставрация изображения, ремастеринг звука и авторинг проведены объединением «Крупный план».

Режиссер: Геннадий Казанский
Актеры: Николай Волков, Алексей Литвинов, Геннадий Худяков, Лев Ковальчук, Вера Рамонова, Майя Блинова, Ольга Черкасова, Ефим Копелян, Александр Лариков, Евгений Весник, Борис Коковкин, Анатолий Королькевич, Всеволод Кузнецов, Зинаида Шарко, Василий Леонов

Продолжительность: 01:24:20
Качество видео: HDRip



Видеокодек: Xvid
Битрейт видео: ~ 1863 kbps
Размер кадра: 720x544
Аудиокодек: AC3 5.1
Битрейт аудио: 448 kbps
Общее
Полное имя : G:\Starik.Hotabich.(1956).XviD.НDRip.avi
Формат : AVI
Формат/Информация : Audio Video Interleave
Размер файла : 1,37 Гбайт
Продолжительность : 1 ч. 24 м.
Общий поток : 2320 Кбит/сек
Название фильма : Starik.Hotabich.1956.XviD.BDRip.Kinozal.TV.avi
Режиссёр : Emotion
Программа кодирования : VirtualDubMod 1.5.10.2 (build 2540/release)
Правообладатель : Kinozal.TV

Видео
Идентификатор : 0
Формат : MPEG-4 Visual
Профиль формата : Advanced Simple@L5
Параметр BVOP формата : 1
Параметр QPel формата : Нет
Параметр GMC формата : Без точки перехода
Параметр матрицы формата : Default (MPEG)
Идентификатор кодека : XVID
Идентификатор кодека/Подсказка : XviD
Продолжительность : 1 ч. 24 м.
Битрейт : 1863 Кбит/сек
Ширина : 720 пикс.
Высота : 544 пикс.
Соотношение сторон : 4:3
Частота кадров : 23,976 кадр/сек
Цветовое пространство : YUV
Подвыборка цветности : 4:2:0
Битовая глубина : 8 бит
Тип развёртки : Прогрессивная
Метод сжатия : С потерями
Бит/(Пиксели*Кадры) : 0.198
Размер потока : 1,10 Гбайт (80%)
Библиотека кодирования : XviD 64

Аудио
Идентификатор : 1
Формат : AC-3
Формат/Информация : Audio Coding 3
Расширение режима : CM (complete main)
Идентификатор кодека : 2000
Продолжительность : 1 ч. 24 м.
Вид битрейта : Постоянный
Битрейт : 448 Кбит/сек
Канал(ы) : 6 канала(ов)
Расположение каналов : Front: L C R, Side: L R, LFE
Частота : 48,0 КГц
Битовая глубина : 16 бит
Метод сжатия : С потерями
Размер потока : 270 Мбайт (19%)
Выравнивание : Разделение по промежуткам
Продолжительность промежутка : 42 мс. (1,00 видеокадр)
Время предзагрузки промежутка : 500 ms
Скриншоты:



Время раздачи: 24/7 - круглосуточно
[NNM-Club.ru]_Starik.Hotabich.(1956).XviD.NDRip.avi.torrent
 Торрент: Платиновая раздача  Зарегистрирован
 
Скачать


Примагнититься
 Зарегистрирован:   18 Авг 2011 22:02:19
 Размер:   1,37 GB  (
 Рейтинг:   4,9 (Голосов: 217)
 Поблагодарили:   687
 Проверка:   Оформление проверено модератором 18 Авг 2011 22:17:55
Как cкачать  ·  Как раздать  ·  Правильно оформить  ·  Поднять ратио!  
laforsh
Модератор Детских Игр
RG Всё лучшее - детям!
 
Стаж: 9 лет 7 мес.
Сообщений: 1452
Ratio: 983,376
Поблагодарили: 31785
100%
ussr.gif
SKVSM, спасибо за отличный фильм. Почему-то и Вы не указываете в оформлении::задумался:
Полная реставрация изображения и звука. Исходные киноматериалы подготовлены Госфильмофондом России. Покадровая цифровая реставрация изображения, ремастеринг звука и авторинг проведены объединением «Крупный план».
zdt
Только чтение
Стаж: 8 лет 10 мес.
Сообщений: 171
Ratio: 1,746
100%
lithuania.gif
Фильм отличнейший , и мы, пионеры, любили его смотреть.
Август@
Стаж: 8 лет 4 мес.
Сообщений: 69
Ratio: 19,271
100%
russia.gif
Вот спасибо, красота. У меня есть, но качество - фиии! Скачаю, будем с дочкой смотреть.
"Горизонтом, о высокочтимый мой учитель,..."
figlar
Стаж: 7 лет 6 мес.
Сообщений: 24
Ratio: 80,67
Раздал: 9,11 TB
Поблагодарили: 432
100%
russia.gif
Фильм классный и смешной. Реставрация в цвете хороша. Качество отличное. Смотрели с удовольствием. "О, вратарь моего сердца!":поклоняется:
diman 86
 
Стаж: 7 лет 1 мес.
Сообщений: 66
Ratio: 27,087
100%
Откуда: СССР
ussr.gif
Фильм моего детства ))) .
cayman313
Стаж: 8 лет
Сообщений: 1080
Ratio: 13,608
Поблагодарили: 128
100%
ukraine.gif
СПС! Вспомним МОЛОДОСТЬ!!!
lidalof
Стаж: 7 лет 8 мес.
Сообщений: 834
Ratio: 0,303
100%
belarus.gif
на третьем скриншоте - зеленые Бананы!)) Не умели тогда бананы "Газировать" для ускорения созревания-пожелтения!
Voin-700
Стаж: 8 лет
Сообщений: 233
Ratio: 223,335
100%
Откуда: Такой страны уже нет(((
ussr.gif
Спасибо!!! Любимый фильм моей юности!!! :супер!: :супер!: :супер!:
EMIAS
Стаж: 8 лет 6 мес.
Сообщений: 292
Ratio: 25,47
Раздал: 70,32 TB
Поблагодарили: 410
100%
russia.gif
Такие теплые воспоминания о фильме-сказке, аж качать страшно :)
slava_amur
Стаж: 7 лет 10 мес.
Сообщений: 135
Ratio: 157,617
100%
ussr.gif
lidalof писал(а): Перейти к сообщению
на третьем скриншоте - зеленые Бананы!)) Не умели тогда бананы "Газировать" для ускорения созревания-пожелтения!


... а бананы на самом деле сделаны из папье-маше. Сказка - вещь!!!

_________________
I'm Russian!
svic2
Стаж: 7 лет 5 мес.
Сообщений: 22
Ratio: 49,885
100%
russia.gif
56 лет прошло! Живы ли те пионеры? Про Хоттабыча молчу уж.
А вот бананы, да! Дефицит тогда был страшный. Если и покупали такую экзотику, то делили дольками на всех одну бананину и выскабливали мякоть даже с кожуры.... Это они сейчас - "национальное" блюдо. Скоро заместо картошки будем жарить-парить
unni
Стаж: 7 лет 7 мес.
Сообщений: 113
Ratio: 29,494
48.15%
Откуда: Екатеринбург
russia.gif
В советских фильмах совершенно иная жизненная атмосфера, не то, что сейчас... Как-будто на машине времени уносишься назад, где всё было так замечательно, спокойно, понятно.

_________________
Россия навсегда!
vladimigerma
Стаж: 7 лет 5 мес.
Сообщений: 1021
Ratio: 30,648
100%
russia.gif
Большое вам спасибо!!!! В коллекцию и на постоянную раздачу.
pr0speed2007
Стаж: 8 лет 3 мес.
Сообщений: 77
Ratio: 1,566
100%
ussr.gif
Наконец-то. В коллекцию. :приветствую:
Показать сообщения:   
Начать новую тему   Ответить на тему    Торрент-трекер NNM-Club -> Видео -> Отечественные Фильмы для детей Часовой пояс: GMT + 3
Страницы:  1, 2  След.
Страница 1 из 2