Интеллигентный торрент-трекер
canvas not supported
Нас вместе: 4 137 647

Отбросы / Плохие / Долбанутые / Misfits (2009) BDRip [H.264] (Сезон 1, серии 1-6 из 6) [Кубик в Кубе]


 
 
RSS
Начать новую тему   Ответить на тему    Торрент-трекер NNM-Club -> Зарубежные сериалы -> Отбросы / Misfits
Автор Сообщение
LuckyLord ®
Стаж: 8 лет 2 мес.
Сообщений: 2385
Ratio: 36,529
Раздал: 14,38 TB
Поблагодарили: 61702
100%
canada.gif
Отбросы / Плохие / Долбанутые / Misfits (2009) BDRip [H.264] (Сезон 1, серии 1-6 из 6) [Кубик в Кубе]
Год выпуска: 2009
Страна: Великобритания
Жанр: Фантастика, чёрная комедия

Перевод: Двуголосый закадровый, профессиональный
Озвучка / Автор перевода: Кубик в Кубе
Язык субтитров: Русские, Английские



Дата мировой премьеры: 12.11.2009

Режиссер: Том Грин, Том Харпер, Чина Му-Ен
Актеры: Роберт Шиэн, Иван Реон, Лорен Соша, Антония Томас, Натан Стюарт-Джарретт, Алекс Рид, Рут Негга, Крэйг Паркинсон, Майкл Обиора, Анна Коваль, и др.

Описание фильма:
Келли, Натан, Кёртис, Алиша и Саймон выполняют общественные работы за совершение мелких преступлений. Они — не друзья. Более того, у них нет ничего общего. В группе постоянно происходят конфликты, споры и драки. Но в удивительный день во время сильного шторма сильная молния делает из них супергероев и наделяет их сверхвозможностями. Они понятия не имеют, что делать с этими сверхвозможностями. Более того, никто из них не рад своей новой силе, потому что она раскрывает их самые глубокие комплексы и тайны, которые бы они не хотели выставлять напоказ. Например, Келли, озабоченная общественным мнением о себе, получает способность читать чужие мысли, а у Кёртиса появляется способность возвращать прошлое. Ребята просто хотят побыстрее закончить свои исправительные работы и окунуться с головой в обычную жизнь тинейджеров. Но судьба им припасла еще одно задание, ведь после ужасного шторма в городе сверхспособностями стали обладать не только они одни…

Продолжительность: ~ 00:45:00 мин
Качество видео: BDRip-AVC

Видеокодек: H.264
Битрейт видео: 25.000 fps, ~2324 - 2997 Kbps, 0.154 - 0.199 bit/pixel
Размер кадра: 1024×576
Аудиокодек: AC3
Аудио Rus: 48 kHz, 2.0 ch, 192 kbps / Кубик в Кубе /
Аудио Eng: 48 kHz, 2.0 ch, 192 kbps / Оригинал /

|Все раздачи сериала|
Oбщее
Уникальный идентификатор : 203477971047167287013691317320383587811 (0x99146E86ECC31109B10A8A6A20FDE5E3)
Полное имя : D:\Videos\Misfits.S01.576p.BDRip-AVC.Rus.Eng.Subs\Misfits.S01E02.576p.BDRip-AVC.Rus.Eng.Subs.mkv
Формат : Matroska
Версия формата : Version 2
Размер файла : 1,00 Гбайт
Продолжительность : 59 м.
Общий поток : 2405 Кбит/сек
Название фильма : Misfits S01E02 ( .org)
Дата кодирования : UTC 2011-07-26 12:05:36
Программа кодирования : mkvmerge v4.9.1 ('Ich will') сборка от Jul 11 2011 23:53:15
Библиотека кодирования : libebml v1.2.1 + libmatroska v1.1.1

Видео
Идентификатор : 1
Формат : AVC
Формат/Информация : Advanced Video Codec
Профиль формата : High@L4.1
Параметр CABAC формата : Да
Параметр ReFrames формата : 12 кадров
Идентификатор кодека : V_MPEG4/ISO/AVC
Продолжительность : 59 м.
Битрейт : 1973 Кбит/сек
Ширина : 1024 пикс.
Высота : 576 пикс.
Соотношение сторон : 16:9
Частота кадров : 25,000 кадр/сек
Цветовое пространство : YUV
Подвыборка цветности : 4:2:0
Битовая глубина : 8 бит
Тип развёртки : Прогрессивная
Бит/(Пиксели*Кадры) : 0.134
Размер потока : 843 Мбайт (82%)
Заголовок : BDRip-AVC by skrat9000
Библиотека кодирования : x264 core 115 r1995 c1e60b9
Настройки программы : cabac=1 / ref=12 / deblock=1:-3:-2 / analyse=0x3:0x113 / me=umh / subme=9 / psy=1 / psy_rd=1.00:0.02 / mixed_ref=1 / me_range=32 / chroma_me=1 / trellis=2 / 8x8dct=1 / cqm=0 / deadzone=21,11 / fast_pskip=1 / chroma_qp_offset=-3 / threads=6 / sliced_threads=0 / nr=0 / decimate=0 / interlaced=0 / bluray_compat=0 / constrained_intra=0 / bframes=9 / b_pyramid=2 / b_adapt=2 / b_bias=0 / direct=3 / weightb=1 / open_gop=0 / weightp=2 / keyint=250 / keyint_min=25 / scenecut=40 / intra_refresh=0 / rc_lookahead=40 / rc=crf / mbtree=0 / crf=18.5 / qcomp=0.72 / qpmin=0 / qpmax=69 / qpstep=4 / vbv_maxrate=50000 / vbv_bufsize=62500 / crf_max=0.0 / nal_hrd=none / ip_ratio=1.30 / pb_ratio=1.20 / aq=1:0.85
Язык : English
Основные цвета : BT.709-5, BT.1361, IEC 61966-2-4, SMPTE RP177
Характеристики трансфера : BT.709-5, BT.1361
Коэффициенты матрицы : BT.709-5, BT.1361, IEC 61966-2-4 709, SMPTE RP177

Аудио #1
Идентификатор : 2
Формат : AC-3
Формат/Информация : Audio Coding 3
Расширение режима : CM (complete main)
Идентификатор кодека : A_AC3
Продолжительность : 59 м.
Вид битрейта : Постоянный
Битрейт : 192 Кбит/сек
Каналы : 2 канала
Расположение каналов : Front: L R
Частота : 48,0 КГц
Битовая глубина : 16 бит
Метод сжатия : С потерями
Размер потока : 82,0 Мбайт (8%)
Заголовок : (DVO) Кубик в кубе
Язык : Russian

Аудио #2
Идентификатор : 3
Формат : AC-3
Формат/Информация : Audio Coding 3
Расширение режима : CM (complete main)
Идентификатор кодека : A_AC3
Продолжительность : 59 м.
Вид битрейта : Постоянный
Битрейт : 192 Кбит/сек
Каналы : 2 канала
Расположение каналов : Front: L R
Частота : 48,0 КГц
Битовая глубина : 16 бит
Метод сжатия : С потерями
Размер потока : 82,0 Мбайт (8%)
Заголовок : Original
Язык : English

Текст #1
Идентификатор : 4
Формат : ASS
Идентификатор кодека : S_TEXT/ASS
Идентификатор кодека/Информация : Advanced Sub Station Alpha
Метод сжатия : Без потерь
Язык : Russian

Текст #2
Идентификатор : 5
Формат : UTF-8
Идентификатор кодека : S_TEXT/UTF8
Идентификатор кодека/Информация : UTF-8 Plain Text
Язык : English

Меню
00:00:00.000 : 00:00:00.000
00:08:48.920 : 00:08:48.920
00:16:15.200 : 00:16:15.200
00:23:47.760 : 00:23:47.760
00:32:17.840 : 00:32:17.840
00:41:44.439 : 00:41:44.439

Скриншоты:


Время раздачи: c 23:00 до 8:00 (до 5 сидов)
 Торрент: Платиновая раздача  Зарегистрирован
 
Скачать


 Зарегистрирован:   08 Авг 2011 23:24:21
 Размер:   5,7 GB  (
 Рейтинг:   4,7 (Голосов: 107)
 Поблагодарили:   307
 Проверка:   Оформление проверено модератором 09 Авг 2011 14:27:54
Как cкачать  ·  Как раздать  ·  Правильно оформить  ·  Поднять ратио!  
darking
Стаж: 7 лет 9 мес.
Сообщений: 21
Ratio: 3,245
Поблагодарили: 1182
17.31%
Откуда: екате​ринбу​рг​
russia.gif
офигенный сериал посмотрите не пожалеете)
myste​ry-of​-deat​h​
 
Стаж: 7 лет 11 мес.
Сообщений: 206
Ratio: 4,156
Раздал: 14,23 TB
Поблагодарили: 332
100%
russia.gif
чумавой сериял, точно на первом канале не покажут)))
vazelin11
Стаж: 6 лет 10 мес.
Сообщений: 59
Ratio: 12,796
100%
Сериал очень весёлый, хотя тема супер героев не нова, но на Тайны Смолвиля и Баффи не похож. Смотреть обязательно!!!
ВолодимирЪ
Стаж: 7 лет 2 мес.
Сообщений: 7
Ratio: 10,343
100%
russia.gif
Крутой сериал! скорее бы продолжение...=)
primitive
Стаж: 8 лет 6 мес.
Сообщений: 153
Ratio: 1,937
100%
russia.gif
спасибо, хороший сериал, необычный
kill_01
Стаж: 8 лет 6 мес.
Сообщений: 70
Ratio: 4,549
Поблагодарили: 686
100%
Откуда: Петро​павло​вск​
kazakhstan.gif
LuckyLord спасибо! буду скачивать) спасибо!!!!!!!
apple eater horo
Стаж: 3 года 4 мес.
Сообщений: 1
Ratio: 24,024
43.3%
большое спасибо за англ сабы
Показать сообщения:   
Начать новую тему   Ответить на тему    Торрент-трекер NNM-Club -> Зарубежные сериалы -> Отбросы / Misfits Часовой пояс: GMT + 3
Страница 1 из 1

День смеха и юмора отмечается 1 апреля. В этот день принято шутить и разыгрывать друзей, коллег по работе, домашних, словом всех, с кем Вам предстоит увидеться в этот праздник – первое апреля. Первоапрельские розыгрыши, приколы на 1 апреля, первоапрельские шутки должны быть веселыми и безобидными. Приколы на 1 апреля, как правило, удаются в том случае, если человек забыл какой сегодня месяц и день, словом, забыл про 1 апреля – день смеха, шуток, день дурака.

Желаем Вам много улыбок и хорошего настроения в этот день!
С Уважением, администрация NNM-Club :)