Интеллигентный торрент-трекер
canvas not supported
Нас вместе: 4 105 154

Идиоты. Догма №2 / Idioterne. Dogme №2


 
 
RSS
Начать новую тему   Ответить на тему    Торрент-трекер NNM-Club -> Артхаус -> Интеллектуальное кино
Автор Сообщение
blink ®
Стаж: 11 лет 9 мес.
Сообщений: 225
Ratio: 1,022
Поблагодарили: 3992
100%
Идиоты / Idioterne (1998) DVDRip
Год выпуска: 1998
Производство: Дания, Швеция, Франция, Нидерланды, Италия, Испания
Жанр: драма, комедия

Описание :
Говорят, что внутри каждого человека прячется маленький идиот. По крайней мере, так считает группа молодых людей, живущих веселой коммуной в шикарном, но абсолютно пустом загородном доме.

Чтобы праздное существование не казалось скучным, члены компании выпускают своих скрытых идиотов наружу, притворяясь душевнобольными. Они со знанием дела изображают даунов в различных общественных местах, смущая окружающих людей до беспредельности.

Ведь идиоту можно все: крушить сервизы в ресторане, совершать увлекательные экскурсии в женскую душевую нагишом и даже заняться групповым сексом со своими соратниками по «идиотизму». Но приходит день, когда игра перестает быть расслабляющей и забавной…

Режиссер: Ларс фон Триер
Актеры:
Бодиль Ёргенсон, Йенс Альбинус, Анне Луизе Хассинг, Троэльс Любю, Николай Ли Каас, Луизе Мириц, Хенрик Прип, Луис Месонеро, Кнуд Ромер Ёргенсон, Трине Микельсен

Продолжительность: 01:49:34
Качество видео: DVDRip
Перевод: Любительский, одноголосый, закадровый



Видеокодек: XviD
Битрейт видео: 768 Kbps
Размер кадра: 448x320
Аудиокодек: MP3, 2 channels
Битрейт аудио: 128 Kbps
Dogme 2. Idioterne\Dogme 2. Idioterne.avi
Format : AVI
Format/Info : Audio Video Interleave
File size : 709 MiB
Duration : 1h 49mn
Overall bit rate : 905 Kbps
Writing application : VirtualDubMod 1.5.10.1 (build 2389/release)
Writing library : VirtualDubMod build 2389/release

Video
ID : 0
Format : MPEG-4 Visual
Format profile : Advanced Simple@L5
Format settings, BVOP : 2
Format settings, QPel : No
Format settings, GMC : No warppoints
Format settings, Matrix : Default (H.263)
Muxing mode : Packed bitstream
Codec ID : XVID
Codec ID/Hint : XviD
Duration : 1h 49mn
Bit rate : 768 Kbps
Width : 448 pixels
Height : 320 pixels
Display aspect ratio : 1.400
Frame rate : 25.000 fps
Color space : YUV
Chroma subsampling : 4:2:0
Bit depth : 8 bits
Scan type : Progressive
Compression mode : Lossy
Bits/(Pixel*Frame) : 0.214
Stream size : 601 MiB (85%)
Writing library : XviD 1.0.1 (UTC 2004-06-05)

Audio
ID : 1
Format : MPEG Audio
Format version : Version 1
Format profile : Layer 3
Mode : Joint stereo
Mode extension : MS Stereo
Codec ID : 55
Codec ID/Hint : MP3
Duration : 1h 49mn
Bit rate mode : Constant
Bit rate : 128 Kbps
Channel(s) : 2 channels
Sampling rate : 48.0 KHz
Compression mode : Lossy
Stream size : 100 MiB (14%)
Alignment : Aligned on interleaves
Interleave, duration : 40 ms (1.00 video frame)
Interleave, preload duration : 504 ms
Скриншоты:

D2I.torrent
 Торрент: Платиновая раздача  Зарегистрирован
 
Скачать


 Зарегистрирован:   26 Июн 2007 00:53:27
 Размер:   709 MB  (
 Рейтинг:   4,7 (Голосов: 41)
 Поблагодарили:   172
 Проверка:   Оформление проверено модератором 26 Июн 2007 10:59:26
Как cкачать  ·  Как раздать  ·  Правильно оформить  ·  Поднять ратио!  

_________________
Самое плохое что может случиться с человеком - его смерть, а всё остальное по сравнению с ней неважно...
Colyansun
Стаж: 11 лет 5 мес.
Сообщений: 137
Ratio: 14,347
100%
Спасибо! Впечатление неизгладимое и, похоже, надолго.....
ithome
Стаж: 11 лет 4 мес.
Сообщений: 1072
Ratio: 5,423
Поблагодарили: 4735
100%
Откуда: Глухое Подмо​сковь​е...​
ussr.gif
С синхронизацией звука у всех все в порядке? Мне пришлось выставить смещение в 500 мс.
blink ®
Стаж: 11 лет 9 мес.
Сообщений: 225
Ratio: 1,022
Поблагодарили: 3992
100%
Ну да вроде... у меня всё ок...

_________________
Самое плохое что может случиться с человеком - его смерть, а всё остальное по сравнению с ней неважно...
Weasel
Стаж: 11 лет
Сообщений: 32
Ratio: 3,031
Поблагодарили: 87
41.67%
vietnam.gif
ithome писал(а):
С синхронизацией звука у всех все в порядке? Мне пришлось выставить смещение в 500 мс.


у меня тоже все ок, смотрел mplayer из klcodec330f

фильм отличный, получил громадное удовольствие, спасибо!
ithome
Стаж: 11 лет 4 мес.
Сообщений: 1072
Ratio: 5,423
Поблагодарили: 4735
100%
Откуда: Глухое Подмо​сковь​е...​
ussr.gif
Странно, что же у меня со звуком... полтергейст...
huh_what?
Гость
У меня тоже всё нормально.
Фильм отличный!
Спасибо, Ларс Фон Триер!
Спасибо, автор темы.
ATA-asp
Стаж: 10 лет 8 мес.
Сообщений: 216
Ratio: 4,352
Поблагодарили: 967
50.49%
Откуда: Санкт​-Пете​рбург​
russia.gif
Фильм интересен только с точки зрения психологии.
Довольно внятно показано, что фанатические убеждения могут позвольть себе только три типа людей:
1. те, у кого всё есть, - они, просто, могут себе это позволить;
2. те, кому больше нечего терять;
3. по-настоящену душевно больные люди.

Нормальному человеку фанатизм "не по карману".

Во всём "шедевре" нет ни одной сцены и ни одной личности достойной понимания либо сочувствия.

Людей, показанных в фильме, лично я глубоко презираю, а их "идейного вдохновителя", встань он на моём пути, убил бы собственными руками - никому бы не доверил (я знаю, что тоже психически не полноценен).

_________________
PRIBA​MBASO​V​
Стаж: 11 лет 9 мес.
Сообщений: 29
Ratio: 1,121
100%
ussr.gif
Спасибо за Догму
nnm789
Стаж: 9 лет 10 мес.
Сообщений: 22
Ratio: 4,126
39.19%
Откуда: Оренбург
russia.gif
добавьте число раздающих??

HELP! :огорчение:
slava​inchi​na​
Стаж: 10 лет 1 мес.
Сообщений: 11
Ratio: 8,936
Поблагодарили: 27
100%
russia.gif
Встал на раздачу!
Гость
Шпасибоб
re_natka
Стаж: 10 лет 5 мес.
Сообщений: 5
Ratio: 39,482
100%
russia.gif
встаньте на раздачу, плиз! =)

Добавлено спустя 1 час 58 минут 12 секунд:

скачала, спасибо! =)

_________________
Когда-то и я была красивой и умной, но в роддоме меня подменили...
smaster67
Модератор Видео
Покровитель талантов Uploader 300+
Стаж: 9 лет
Сообщений: 6980
Ratio: 221,808
Поблагодарили: 208669
100%
Показать сообщения:   
Начать новую тему   Ответить на тему    Торрент-трекер NNM-Club -> Артхаус -> Интеллектуальное кино Часовой пояс: GMT + 3
Страница 1 из 1