Классический форум-трекер
canvas not supported
Нас вместе: 4 068 665

Slade - Play It Loud (1970) Remastered /2006, Daiki Sound/ [FLAC|Lossless]<Glam Rock>


 
 
RSS
Начать новую тему   Ответить на тему    Торрент-трекер NNM-Club -> Rock, Alternative, Punk, Metal -> Hard Rock (Lossless)
Автор Сообщение
snaz ®
Стаж: 8 лет 10 мес.
Сообщений: 101
Ratio: 41,49
Раздал: 4,641 TB
Поблагодарили: 1547
100%
Откуда: Николаев
Slade - Play It Loud (1970)
Год: 1970
Жанр: Glam Rock
Продолжительность: 00:45:42

Кодек: FLAC
Тип рипа: image + .cue
Битрейт: Lossless

Треклист:
01. Raven [02:38]
02. See Us Here [03:12]
03. Dapple Rose [03:31]
04. Could I [02:48]
05. One Way Hotel [02:42]
06. The Shape Of Things To Come [02:19]
07. Know Who You Are [02:54]
08. I Remember [02:56]
09. Pouk Hill [02:24]
10. Angelina [02:50]
11. Dirty Joker [03:27]
12. Sweet Box [03:34]
13. Get Down And Get With It* [03:52]
14. Coz I Luv You* [03:26]
15. Look What You Dun* [03:01]
Format CD
Release Date 2006/12/20

Catalog No. DAKAIRAC-1300
JAN 4948722307327
Number of discs 1
Item weight 80g
Label/Distributor Daiki Sound

Cardboard sleeve (mini LP) reissue from Slade featuring 24bit remastering from 2006 and limited edition Cardboard sleeve (mini LP) jacket artwork. Part of a sixteen-album Slade Cardboard sleeve (mini LP) reissue series featuring the albums "Slade Alive," "Nobody's Fools," "Whatever Happened To Slade," "We'll Bring The House Down," "Return to Base," "Slade Alive Vol. 2," "Slade On Stage," "The Amazing Kamikazee Syndrome," "Till Deaf Do Us Part," "Rogues Gallery," "You Boyz Make Big Noize," "Slayed?" "Slade in Flame," "Play It Loud," "Old, New Borrowed and Blue," and the Ambrose Slade work "Beginnings."
Код:
Exact Audio Copy V0.99 prebeta 5 from 4. May 2009

Отчёт EAC об извлечении, выполненном 5. июня 2010, 11:01

Slade / Play It Loud [Cardboard Sleeve]

Дисковод: Optiarc DVD RW AD-7170S   Adapter: 2  ID: 1

Режим чтения                 : Достоверность
Использование точного потока : Да
Отключение кэша аудио        : Да
Использование указателей C2  : Нет

Коррекция смещения при чтении                     : 48
Способность читать области Lead-in и Lead-out     : Нет
Заполнение пропущенных сэмплов тишиной            : Да
Удаление блоков с тишиной в начале и конце        : Нет
При вычислениях CRC использовались нулевые сэмплы : Нет
Интерфейс                                         : Встроенный Win32-интерфейс для Win NT/2000

Выходной формат          : Пользовательский кодировщик
Выбранный битрейт        : 768 kBit/s
Качество                 : Высокий
Добавление ID3-тэга      : Нет
Утилита сжатия           : C:\Program Files (x86)\Exact Audio Copy\FLAC\FLAC.EXE
Дополнительные параметры : -6 -V -T "ARTIST=%a" -T "TITLE=%t" -T "ALBUM=%g" -T "DATE=%y" -T "TRACKNUMBER=%n" -T "GENRE=%m" -T "COMMENT=%e" %s -o %d

TOC извлечённого CD

     Трек |   Старт  | Длительность | Начальный сектор | Конечный сектор
    ---------------------------------------------------------------------
       1  |  0:00.00 |    2:38.30   |           0      |      11879
       2  |  2:38.30 |    3:12.64   |       11880      |      26343
       3  |  5:51.19 |    3:31.72   |       26344      |      42240
       4  |  9:23.16 |    2:48.12   |       42241      |      54852
       5  | 12:11.28 |    2:42.00   |       54853      |      67002
       6  | 14:53.28 |    2:19.62   |       67003      |      77489
       7  | 17:13.15 |    2:54.59   |       77490      |      90598
       8  | 20:07.74 |    2:56.69   |       90599      |     103867
       9  | 23:04.68 |    2:24.72   |      103868      |     114739
      10  | 25:29.65 |    2:50.56   |      114740      |     127545
      11  | 28:20.46 |    3:27.65   |      127546      |     143135
      12  | 31:48.36 |    3:34.18   |      143136      |     159203
      13  | 35:22.54 |    3:52.17   |      159204      |     176620
      14  | 39:14.71 |    3:26.53   |      176621      |     192123
      15  | 42:41.49 |    3:01.12   |      192124      |     205710

Характеристики диапазона извлечения и сообщения об ошибках

Выбранный диапазон

     Имя файла C:\Users\Администратор\Documents\Slade - Play It Loud [Cardboard Sleeve].wav

     Пиковый уровень 94.6 %
     Качество диапазона 100.0 %
     CRC теста 54C85FE3
     CRC копии 54C85FE3
     Копирование... OK

Ошибок не произошло

AccurateRip: сводка

Трек  1  точность не определена (достоверность 1)  [AFB2E628], AccurateRip вернул [13F8EAC1]
Трек  2  точность не определена (достоверность 1)  [69B98FE6], AccurateRip вернул [880624AD]
Трек  3  точность не определена (достоверность 1)  [DE3AB12E], AccurateRip вернул [BECAF87B]
Трек  4  точность не определена (достоверность 1)  [4D00BB40], AccurateRip вернул [D6AAB85B]
Трек  5  точность не определена (достоверность 1)  [5FE57C5A], AccurateRip вернул [92590C52]
Трек  6  точность не определена (достоверность 1)  [C493CA9A], AccurateRip вернул [93B6BD26]
Трек  7  точность не определена (достоверность 1)  [D376BCF5], AccurateRip вернул [D7778F18]
Трек  8  точность не определена (достоверность 1)  [FB618C0C], AccurateRip вернул [83B5C27E]
Трек  9  точность не определена (достоверность 1)  [3523FA1A], AccurateRip вернул [1442F457]
Трек 10  точность не определена (достоверность 1)  [424660BF], AccurateRip вернул [5E250506]
Трек 11  точность не определена (достоверность 1)  [D9C2AEBB], AccurateRip вернул [D68077D3]
Трек 12  точность не определена (достоверность 1)  [1580E121], AccurateRip вернул [A3235BF9]
Трек 13  точность не определена (достоверность 1)  [F6BDCB70], AccurateRip вернул [CB3F1773]
Трек 14  точность не определена (достоверность 1)  [56F2C48B], AccurateRip вернул [A7572A1F]
Трек 15  точность не определена (достоверность 1)  [D2566C2C], AccurateRip вернул [EF861314]

Ни один трек не прошёл проверки на точность
В вашей базе может быть иной вариант штамповки диска

Конец отчёта
Код:
AUDIOCHECKER v2.0 beta (build 457) - by Dester - opdester@freemail.hu
~~~~~~~~~~~~~~~~~~~~~~~~~~~~~~~~~~
-=== НЕ РЕДАКТИРУЙТЕ ЭТОТ ФАЙЛ! ===-

Путь: ...\Slade - Play It Loud [Cardboard Sleeve]

1 -=- Slade - Play It Loud [Cardboard Sleeve].flac -=- CDDA (100%)

43035348



Поглощение/вытеснение
Только с согласия релизера

DesideriuM

Реставрация релиза: Pashketan
[NNM-Club.ru]_Slade - Play It Loud [Cardboard Sleeve].torrent
 Торрент: Платиновая раздача  Зарегистрирован
 
Скачать


 Зарегистрирован:   05 Июн 2010 12:23:55
 Размер:   247 MB  (
 Рейтинг:   4,9 (Голосов: 17)
 Поблагодарили:   51
 Проверка:   Оформление проверено модератором 06 Июн 2010 21:06:51
Как cкачать  ·  Как раздать  ·  Правильно оформить  ·  Поднять ратио!  
aleksav
Стаж: 9 лет 1 мес.
Сообщений: 152
Ratio: 7,181
Поблагодарили: 172
100%
russia.gif
Ай-яй-яй, как здорово! Преогромнейшее спасибо! :поклоняется:
NickPalych
Стаж: 9 лет 2 мес.
Сообщений: 1
Ratio: 2,202
2.55%
Спасибо за такую отличную музыку!
snaz ®
Стаж: 8 лет 10 мес.
Сообщений: 101
Ratio: 41,49
Раздал: 4,641 TB
Поблагодарили: 1547
100%
Откуда: Николаев
Спасибо за такие отзывы! Значит еще будет музыка!
Urg@n
Стаж: 9 лет
Сообщений: 144
Ratio: 9,392
100%
Откуда: Lubertsi
russia.gif
Спасибо,Slade foreva!!!
Показать сообщения:   
Начать новую тему   Ответить на тему    Торрент-трекер NNM-Club -> Rock, Alternative, Punk, Metal -> Hard Rock (Lossless) Часовой пояс: GMT + 3
Страница 1 из 1