Классический форум-трекер
canvas not supported
Нас вместе: 4 068 748

Slade - Nobody's Fools (1976) Remastered Japanese Release /2006, Daiki Sound/ [FLAC|Lossless]<Rock>


 
 
RSS
Начать новую тему   Ответить на тему    Торрент-трекер NNM-Club -> Rock, Alternative, Punk, Metal -> Hard Rock (Lossless)
Автор Сообщение
snaz ®
Стаж: 8 лет 10 мес.
Сообщений: 101
Ratio: 41,49
Раздал: 4,641 TB
Поблагодарили: 1547
100%
Откуда: Николаев
Slade - Nobody's Fools (1976)
Год: 1976
Жанр: Rock
Продолжительность: 00:48:51

Кодек: FLAC
Тип рипа: image + .cue
Битрейт: Lossless

Треклист:
01. Nobody's Fool [04:41]
02. Do The Dirty [04:42]
03. Let's Call It Quits [03:31]
04. Pack Up Your Troubles [03:24]
05. In For A Penny [03:36]
06. Get On Up [03:57]
07. L.A. Jinx [03:26]
08. Did Ya MaMa Ever Tell Ya [03:06]
09. Scratch My Back [03:06]
10. I'm A Talker [03:17]
11. All The World Is A Stage [04:07]
12. Can You Just Imagine* [03:33]
13. When The Chips Are Down* [04:18]
Format CD
Release Date 2006/12/27

Catalog No. DAKAIRAC-1305
JAN 4948722307266
Number of discs 1
Item weight 80g
Label/Distributor Daiki Sound

Cardboard sleeve (mini LP) reissue from Slade featuring 24bit remastering from 2006 and limited edition Cardboard sleeve (mini LP) jacket artwork. Part of a sixteen-album Slade Cardboard sleeve (mini LP) reissue series featuring the albums "Slade Alive," "Nobody's Fools," "Whatever Happened To Slade," "We'll Bring The House Down," "Return to Base," "Slade Alive Vol. 2," "Slade On Stage," "The Amazing Kamikazee Syndrome," "Till Deaf Do Us Part," "Rogues Gallery," "You Boyz Make Big Noize," "Slayed?" "Slade in Flame," "Play It Loud," "Old, New Borrowed and Blue," and the Ambrose Slade work "Beginnings."
Код:
Exact Audio Copy V0.99 prebeta 5 from 4. May 2009

Отчёт EAC об извлечении, выполненном 2. июня 2010, 17:28

Slade / Nobody's fools (Japan 2006)

Дисковод: Optiarc DVD RW AD-7170S   Adapter: 2  ID: 1

Режим чтения                 : Достоверность
Использование точного потока : Да
Отключение кэша аудио        : Да
Использование указателей C2  : Нет

Коррекция смещения при чтении                     : 48
Способность читать области Lead-in и Lead-out     : Нет
Заполнение пропущенных сэмплов тишиной            : Да
Удаление блоков с тишиной в начале и конце        : Нет
При вычислениях CRC использовались нулевые сэмплы : Нет
Интерфейс                                         : Встроенный Win32-интерфейс для Win NT/2000

Выходной формат          : Пользовательский кодировщик
Выбранный битрейт        : 768 kBit/s
Качество                 : Высокий
Добавление ID3-тэга      : Нет
Утилита сжатия           : C:\Program Files (x86)\Exact Audio Copy\FLAC\FLAC.EXE
Дополнительные параметры : -6 -V -T "ARTIST=%a" -T "TITLE=%t" -T "ALBUM=%g" -T "DATE=%y" -T "TRACKNUMBER=%n" -T "GENRE=%m" -T "COMMENT=%e" %s -o %d

TOC извлечённого CD

     Трек |   Старт  | Длительность | Начальный сектор | Конечный сектор
    ---------------------------------------------------------------------
       1  |  0:00.00 |    4:41.00   |           0      |      21074
       2  |  4:41.00 |    4:42.39   |       21075      |      42263
       3  |  9:23.39 |    3:31.13   |       42264      |      58101
       4  | 12:54.52 |    3:24.70   |       58102      |      73471
       5  | 16:19.47 |    3:36.37   |       73472      |      89708
       6  | 19:56.09 |    3:26.32   |       89709      |     105190
       7  | 23:22.41 |    3:57.69   |      105191      |     123034
       8  | 27:20.35 |    3:06.60   |      123035      |     137044
       9  | 30:27.20 |    3:06.47   |      137045      |     151041
      10  | 33:33.67 |    3:17.63   |      151042      |     165879
      11  | 36:51.55 |    4:07.11   |      165880      |     184415
      12  | 40:58.66 |    3:33.74   |      184416      |     200464
      13  | 44:32.65 |    4:18.27   |      200465      |     219841

Характеристики диапазона извлечения и сообщения об ошибках

Выбранный диапазон

     Имя файла C:\Users\Администратор\Documents\Slade - Nobody's Fools [Cardboard Sleeve].wav

     Пиковый уровень 96.6 %
     Качество диапазона 99.9 %
     CRC теста 1F90EE44
     CRC копии 1F90EE44
     Копирование... OK

Ошибок не произошло

AccurateRip: сводка

Трек  1  нет в базе данных
Трек  2  нет в базе данных
Трек  3  нет в базе данных
Трек  4  нет в базе данных
Трек  5  нет в базе данных
Трек  6  нет в базе данных
Трек  7  нет в базе данных
Трек  8  нет в базе данных
Трек  9  нет в базе данных
Трек 10  нет в базе данных
Трек 11  нет в базе данных
Трек 12  нет в базе данных
Трек 13  нет в базе данных

Ни одного трека нет в базе AccurateRip

Конец отчёта
Код:
AUDIOCHECKER v2.0 beta (build 457) - by Dester - opdester@freemail.hu
~~~~~~~~~~~~~~~~~~~~~~~~~~~~~~~~~~
-=== НЕ РЕДАКТИРУЙТЕ ЭТОТ ФАЙЛ! ===-

Путь: ...\Slade - Nobody's Fools [Cardboard Sleeve]

1 -=- Slade - Nobody's Fools [Cardboard Sleeve].flac -=- CDDA (100%)

10017092

Реставрация релиза: Pashketan
[NNM-Club.ru]_Slade - Nobody's Fools [Cardboard Sleeve].torrent
 Торрент: Платиновая раздача  Зарегистрирован
 
Скачать


 Зарегистрирован:   02 Июн 2010 18:22:02
 Размер:   293 MB  (
 Рейтинг:   4,9 (Голосов: 16)
 Поблагодарили:   82
 Проверка:   Оформление проверено модератором 03 Июн 2010 22:07:59
Как cкачать  ·  Как раздать  ·  Правильно оформить  ·  Поднять ратио!  
aleks-nt
Стаж: 9 лет 4 мес.
Сообщений: 516
Ratio: 21,795
100%
Откуда: С УРАЛЬСКИХ ГОР
russia.gif
За японца спасибо :D
miraserg
Только чтение
Стаж: 9 лет 9 мес.
Сообщений: 421
Ratio: 0,401
100%
Откуда: VOROSHILOVgrad
ussr.gif
:стеб: :стеб: :стеб:
Urg@n
Стаж: 9 лет
Сообщений: 144
Ratio: 9,392
100%
Откуда: Lubertsi
russia.gif
Спасибо за Японица,да и альбом осень нравится.
Igor65
Стаж: 8 лет 5 мес.
Сообщений: 52
Ratio: 18,599
100%
russia.gif
Спс!все хорошо,тока на раздаче никого,кто выйдет,поможет!!!
Показать сообщения:   
Начать новую тему   Ответить на тему    Торрент-трекер NNM-Club -> Rock, Alternative, Punk, Metal -> Hard Rock (Lossless) Часовой пояс: GMT + 3
Страница 1 из 1