Интеллигентный торрент-трекер
Нас вместе: 3 704 446 | Новости торрент-трекера | Как тут скачивать? | Как раздавать торренты? | Правила оформления

Radio Чача - 2 Альбома (2010-2012) [FLAC/WavPack|Lossless]<Punk Rock>


 
 
RSS
Начать новую тему   Ответить на тему    Торрент-трекер NNM-Club -> Rock, Alternative, Punk, Metal -> Русский Рок (Lossless)
Предыдущая тема :: Следующая тема  
Автор Сообщение
Shuran80 ®
Меценат
Свободный релизер
 


Стаж: 5 лет 5 месяцев
Сообщений: 2953
Ratio: 1191,424
Раздал: 78,34 TB
Поблагодарили: 149319
100%
Откуда: Ленинград
ussr.gif

Сообщение 30 Апр 2010 15:27:44  Заголовок сообщения: Radio Чача - 2 Альбома (2010-2012) [FLAC/WavPack|Lossless]<Punk Rock> Ответить с цитатой

Radio Чача - Дискография (2010-2012)
Год: 2010-2012
Жанр: Punk Rock
Страна: Россия
Продолжительность: 01:15:12

Издатель: Союз Мьюзик
Кодек: FLAC/WavPack (image+.cue)
Битрейт: Lossless


Описание:
Radio Чача – сольный проект основателя и лидера культовой московской панк-рок-группы «НАИВ» Александра «Чачи» Иванова. Всё началось весной 2009 года, когда группа Наив ушла в бессрочный отпуск. С этого времени Александр работал над своим новым детищем — группой Radio Чача, официально о существовании которой было объявлено весной 2010 года.

Состав:
Александр (Чача) Иванов - Вокал
Илья Спирин - Гитара
Николай Богданов - Бас-гитара, вокал
Михаил Козодаев - Ударные, перкуссия

Оф. сайт группы
Треклист:
01. Когда вернётся НАИВ? (3:01)
02. Элвис Пресли (наших дней) (3:42)
03. Плакаты (4:01)
04. 2030 (3:45)
05. Прокурор - медведь (закон - тайга) (3:31)
06. Вон из дома (3:10)
07. Более или менее (4:02)
08. Вася 2 (3:26)
09. Влюблённый металлист (3:37)
10. Arrested development (3:26)

Продолжительность: 00:35:41
Код:

 Exact Audio Copy V0.99 prebeta 5 from 4. May 2009

Отчёт EAC об извлечении, выполненном 29. апреля 2010, 22:52

Радио Чача / Live slow. Die old.

Дисковод: Optiarc DVD RW AD-7203A   Adapter: 1  ID: 0

Режим чтения                 : Достоверность
Использование точного потока : Да
Отключение кэша аудио        : Да
Использование указателей C2  : Нет

Комбинированное смещение чтения/записи            : 48
Способность читать области Lead-in и Lead-out     : Нет
Заполнение пропущенных сэмплов тишиной            : Да
Удаление блоков с тишиной в начале и конце        : Нет
При вычислениях CRC использовались нулевые сэмплы : Да
Интерфейс                                         : Установленный внешний ASPI-интерфейс

Выходной формат : Внутренние WAV-операции
Формат сэмплов  : 44.100 Гц; 16 бит; стерео

TOC извлечённого CD

     Трек |   Старт  | Длительность | Начальный сектор | Конечный сектор
    ---------------------------------------------------------------------
       1  |  0:00.00 |    3:00.66   |           0      |      13565
       2  |  3:00.66 |    3:42.13   |       13566      |      30228
       3  |  6:43.04 |    4:00.67   |       30229      |      48295
       4  | 10:43.71 |    3:44.47   |       48296      |      65142
       5  | 14:28.43 |    3:31.03   |       65143      |      80970
       6  | 17:59.46 |    3:10.30   |       80971      |      95250
       7  | 21:10.01 |    4:01.51   |       95251      |     113376
       8  | 25:11.52 |    3:26.32   |      113377      |     128858
       9  | 28:38.09 |    3:36.61   |      128859      |     145119
      10  | 32:14.70 |    3:26.36   |      145120      |     160605

Характеристики диапазона извлечения и сообщения об ошибках

Выбранный диапазон

     Имя файла C:\EAC-RIP\Радио Чача - Live slow. Die old..wav

     Пиковый уровень 99.2 %
     Качество диапазона 100.0 %
     CRC копии FF61C6C4
     Копирование... OK

Ошибок не произошло

Конец отчёта

Код:
-----------------------

DON'T MODIFY THIS FILE

-----------------------

PERFORMER: auCDtect Task Manager, ver. 1.5.1RC4 build 1.5.1.5
Copyright (c) 2008-2010 y-soft. All rights reserved
http://y-soft.org

ANALYZER: auCDtect: CD records authenticity detector, version 0.8.2
Copyright (c) 2004 Oleg Berngardt. All rights reserved.
Copyright (c) 2004 Alexander Djourik. All rights reserved.

FILE: Radio Чача - Live slow. Die old.flac
  Size: 253768986 Hash: 6B335A8CBF1EED9CDDA76416093DD444 Accuracy: -m0
  Conclusion: CDDA 100%
  Signature: 8BFA11E74FBBF94AB367E88C3BBED254DB354E35
Код:
[Verification date: 06.01.2013 21:38:57]
[Disc ID: 000d730a-006bf07b-71085d0a]
Track  [ CRC    ] Status
 01  [a6b66378] (04/04) Accurately ripped as in pressing(s) #1
 02  [4e76799a] (04/04) Accurately ripped as in pressing(s) #1
 03  [741c10fe] (04/04) Accurately ripped as in pressing(s) #1
 04  [7cd832ee] (04/04) Accurately ripped as in pressing(s) #1
 05  [12978d9c] (04/04) Accurately ripped as in pressing(s) #1
 06  [b42c4fff] (04/04) Accurately ripped as in pressing(s) #1
 07  [a0225343] (04/04) Accurately ripped as in pressing(s) #1
 08  [a80588a5] (04/04) Accurately ripped as in pressing(s) #1
 09  [0a40ac56] (04/04) Accurately ripped as in pressing(s) #1
 10  [6942c773] (04/04) Accurately ripped as in pressing(s) #1

Track  [ CRC32  ]  [W/O NULL]  [  LOG   ]
 --  [FF61C6C4]  [70246CDD]    CRC32
 01  [0DAA70D0]  [FDA28F3D]
 02  [201C35C7]  [3348726A]
 03  [4696877A]  [7D3E480B]
 04  [84CCDD19]  [D74DD5DD]
 05  [539DC372]  [30650F3B]
 06  [67283A5F]  [BA93F025]
 07  [316C5FC1]  [FA19B231]
 08  [B13B5D37]  [C72B7FE2]
 09  [3F73895D]  [E431442C]
 10  [29231060]  [81FF7A36]
Треклист:
01. Я - враг системы (А вы все козлы) (2:07)
02. Песня орка перед боем (Оркская народная песня) (3:21)
03. Смотрю в окно… (3:00)
04. Песенка артистов (3:28)
05. Песенка про группу Pussy Riot (2:03)
06. Голосуй - не голосуй (3:04)
07. Не пассажир (Урок географии) (3:29)
08. В системе дней (3:49)
09. Курс на забвение (2:52)
10. Punx Not Dead - Ура!!! (2:41)
11. Ой, мороз, мороз… (Русская народная песня) (4:20)
12. 2030 (1Shot mix) (5:15)

Продолжительность: 00:39:30
Код:

 Exact Audio Copy V1.0 beta 3 from 29. August 2011

EAC extraction logfile from 3. January 2013, 23:53

Radio Чача / Punk Rock Is Not A Crime

Used drive  : Optiarc DVD RW AD-7203S   Adapter: 5  ID: 0

Read mode               : Secure
Utilize accurate stream : Yes
Defeat audio cache      : Yes
Make use of C2 pointers : No

Read offset correction                      : 48
Overread into Lead-In and Lead-Out          : No
Fill up missing offset samples with silence : Yes
Delete leading and trailing silent blocks   : No
Null samples used in CRC calculations       : Yes
Used interface                              : Native Win32 interface for Win NT & 2000

Used output format              : User Defined Encoder
Selected bitrate                : 1024 kBit/s
Quality                         : High
Add ID3 tag                     : No
Command line compressor         : C:\Program Files (x86)\Exact Audio Copy\wavpack.exe
Additional command line options : -hlmx2 %source% %dest%

TOC of the extracted CD

     Track |   Start  |  Length  | Start sector | End sector
    ---------------------------------------------------------
        1  |  0:00.00 |  2:06.57 |         0    |     9506
        2  |  2:06.57 |  3:20.45 |      9507    |    24551
        3  |  5:27.27 |  2:59.73 |     24552    |    38049
        4  |  8:27.25 |  3:28.25 |     38050    |    53674
        5  | 11:55.50 |  2:03.33 |     53675    |    62932
        6  | 13:59.08 |  3:04.04 |     62933    |    76736
        7  | 17:03.12 |  3:29.34 |     76737    |    92445
        8  | 20:32.46 |  3:49.24 |     92446    |   109644
        9  | 24:21.70 |  2:52.25 |    109645    |   122569
       10  | 27:14.20 |  2:41.15 |    122570    |   134659
       11  | 29:55.35 |  4:19.68 |    134660    |   154152
       12  | 34:15.28 |  5:14.73 |    154153    |   177775

Range status and errors

Selected range

     Filename I:\Prepare\Radio Чача - Punk Rock Is Not A Crime\Radio Чача - Punk Rock Is Not A Crime.wav

     Peak level 98.8 %
     Extraction speed 3.6 X
     Range quality 100.0 %
     Test CRC E6EA0003
     Copy CRC E6EA0003
     Copy OK

No errors occurred

AccurateRip summary

Track  1  not present in database
Track  2  not present in database
Track  3  not present in database
Track  4  not present in database
Track  5  not present in database
Track  6  not present in database
Track  7  not present in database
Track  8  not present in database
Track  9  not present in database
Track 10  not present in database
Track 11  not present in database
Track 12  not present in database

None of the tracks are present in the AccurateRip database

End of status report

==== Log checksum 9C3A9C46379F7D314BC1D35750F20BA061F4AC50252DA92B68A2984727DB2007 ====

Код:
-----------------------

DON'T MODIFY THIS FILE

-----------------------

PERFORMER: auCDtect Task Manager, ver. 1.5.1RC4 build 1.5.1.5
Copyright (c) 2008-2010 y-soft. All rights reserved
http://y-soft.org

ANALYZER: auCDtect: CD records authenticity detector, version 0.8.2
Copyright (c) 2004 Oleg Berngardt. All rights reserved.
Copyright (c) 2004 Alexander Djourik. All rights reserved.

FILE: Radio CHacha - 2012 - Punk Rock Is Not A Crime.wv
  Size: 304292269 Hash: F0C0C2019E01C5D8EBAB70ABFC6FB497 Accuracy: -m0
  Conclusion: CDDA 100%
  Signature: 79235E63B787107239631F8CCAB9AA49B4649FB4
Время раздачи: Обычно с 19:00 до 00:00 :спит:
[NNM-Club.ru]_Radio CHacha - Diskografiya (2010-2012) Lossless.torrent
 Торрент: Золотая раздача  Зарегистрирован
 


Зарегистрируйтесь и скачайте торрент!
 Зарегистрирован:   07 Янв 2013 13:46:39
 Размер:   567 MB  (
 Рейтинг:   4,8 (Голосов: 17)
 Поблагодарили:   70
 Проверка:   Оформление проверено модератором 08 Янв 2013 06:05:27
Как cкачать  ·  Как раздать  ·  Правильно оформить  ·  Поднять ратио!  

_________________
МОИ РЕЛИЗЫ


Последний раз редактировалось: Shuran80 (07 Янв 2013 13:46:32), всего редактировалось 1 раз
Shuran80 ®
Меценат
Свободный релизер
 


Стаж: 5 лет 5 месяцев
Сообщений: 2953
Ratio: 1191,424
Раздал: 78,34 TB
Поблагодарили: 149319
100%
Откуда: Ленинград
ussr.gif

Сообщение 07 Янв 2013 13:56:45  Заголовок сообщения: Ответить с цитатой

Внимание! Раздача обновлена.
Альбом 2010 г. заменён, добавлен альбом 2012.
Пожалуйста, скачайте новый торрент.

_________________
МОИ РЕЛИЗЫ
Allwright

Стаж: 5 лет 1 месяц
Сообщений: 35
Ratio: 2,214
0.94%
thailand.gif

Сообщение 17 Апр 2013 16:35:26  Заголовок сообщения: Ответить с цитатой

живи долго звучит как 128 мп3)))
BarShadow
Куратор КПК
и Мобилок


Стаж: 3 года 6 месяцев
Сообщений: 12196
Ratio: 16,328
Поблагодарили: 15201
100%
Откуда: Юпитер Статус: Беженец
wild_hogs.gif

Сообщение 17 Апр 2013 17:03:15  Заголовок сообщения: Ответить с цитатой

Allwright писал(а): Перейти к сообщению
живи долго звучит как 128 мп3)))

Показать сообщения:   
Начать новую тему   Ответить на тему    Торрент-трекер NNM-Club -> Rock, Alternative, Punk, Metal -> Русский Рок (Lossless) Часовой пояс: GMT + 4
Страница 1 из 1