Интеллигентный торрент-трекер
Нас вместе: 3 849 594 | Новости торрент-трекера | Как тут скачивать? | Как раздавать торренты? | Правила оформления

Скачать бесплатно торрент Любимая женщина механика Гаврилова (1981), DVDRip (полная реставрация) torrent download


 
 
RSS
Начать новую тему   Ответить на тему    Торрент-трекер NNM-Club -> Классика кино и Фильмы до 90-х -> Отечественная Классика (HD*Rip/LQ, DVDRip, SATRip, VHSRip)
Предыдущая тема :: Следующая тема 
Автор Сообщение
Garryson ®
Главный Модератор
Стаж: 6 лет 4 мес.
Сообщений: 4731
Ratio: 1284,262
Поблагодарили: 107423
100%
Откуда: DFO
logo.gif
Сообщение 03 Апр 2010 00:08:50  Заголовок сообщения: Любимая женщина механика Гаврилова (1981), DVDRip (полная реставрация) Ответить с цитатой

Любимая женщина механика Гаврилова (1981) DVDRip
Год выпуска: 1981
Производство: СССР, киностудия "Мосфильм"
Жанр: Мелодрама, комедия

Описание фильма:
Все началось с того, что судовой механик Гаврилов не явился на собственную свадьбу. Рита прождала его весь день, страдая и надеясь. А дальше… Дальше — история любви.

Режиссер: Петр Тодоровский
Актеры: Людмила Гурченко, Сергей Шакуров, Евгений Евстигнеев, Анатолий Васильев, Михаил Светин, Всеволод Шиловский, Наталья Назарова, Людмила Аринина, Светлана Пономарева, Станислав Соколов, Александр Голобородько

Продолжительность: 01:14:53
Качество видео: DVDRip



Видео: DivX 5, 2 160 Kbps, 720 x 304 pixels, 25.000 fps, Bits/(Pixel*Frame) : 0.395
Аудио: AC-3 , 448 Kbps, 6 channels, 48.0 KHz
General
Complete name : D:\РЕСТАВРАЦИЯ\Ljubimaja zhenszina mehanika Gavrilova.avi
Format : AVI
Format/Info : Audio Video Interleave
File size : 1.37 GiB
Duration : 1h 14mn
Overall bit rate : 2 614 Kbps
Writing application : VirtualDubMod 1.5.4.1 (build 2178/release)
Writing library : VirtualDubMod build 2178/release

Video
ID : 0
Format : MPEG-4 Visual
Format settings, BVOP : 1
Format settings, QPel : No
Format settings, GMC : No warppoints
Format settings, Matrix : Default (H.263)
Muxing mode : Packed bitstream
Codec ID : DX50
Codec ID/Hint : DivX 5
Duration : 1h 14mn
Bit rate : 2 160 Kbps
Width : 720 pixels
Height : 304 pixels
Display aspect ratio : 2.35:1
Frame rate : 25.000 fps
Color space : YUV
Chroma subsampling : 4:2:0
Bit depth : 8 bits
Scan type : Progressive
Compression mode : Lossy
Bits/(Pixel*Frame) : 0.395
Stream size : 1.13 GiB (83%)
Writing library : DivX 6.2.5 (UTC 2006-07)

Audio
ID : 1
Format : AC-3
Format/Info : Audio Coding 3
Mode extension : CM (complete main)
Format settings, Endianness : Big
Codec ID : 2000
Duration : 1h 14mn
Bit rate mode : Constant
Bit rate : 448 Kbps
Channel(s) : 6 channels
Channel positions : Front: L C R, Side: L R, LFE
Sampling rate : 48.0 KHz
Bit depth : 16 bits
Compression mode : Lossy
Stream size : 240 MiB (17%)
Alignment : Split accross interleaves
Interleave, duration : 96 ms (2.40 video frames)
Interleave, preload duration : 96 ms
Скриншоты:



Реставрация релиза: smaster67

Все релизы фильма на NNM-club
[NNM-Club.ru]_Ljubimaja zhenszina mehanika Gavrilova.avi.torrent
 Торрент: Платиновая раздача  Зарегистрирован
 
Примагнититься
Free Leech
Скачать
13,9 KB
 Зарегистрирован:   03 Апр 2010 00:08:50
 Размер:   1,37 GB  (
 Рейтинг:   4,7 (Голосов: 67)
 Поблагодарили:   180
 Проверка:   Оформление проверено модератором 03 Апр 2010 00:10:09
Как cкачать  ·  Как раздать  ·  Правильно оформить  ·  Поднять ратио!  

_________________
Набор в универсальную релиз-группу ... RG Releasers
senti​nel27​27​
Куратор Видео
Стаж: 7 лет 9 мес.
Сообщений: 4383
Ratio: 104,726
Раздал: 25,37 TB
Поблагодарили: 26011
100%
Откуда: Odessa
ukraine.gif
Сообщение 30 Мар 2011 23:08:07  Заголовок сообщения: Ответить с цитатой

В Москве на 76-м году жизни ушла из жизни актриса кино и театра, легендарная Людмила Гурченко.

Вечная память
smaster67
Покровитель талантов
Uploader 100+
 
Стаж: 5 лет 4 мес.
Сообщений: 4572
Ratio: 109,572
Поблагодарили: 101971
100%
Сообщение 27 Ноя 2014 16:15:19  Заголовок сообщения: Ответить с цитатой


Показать сообщения:   
Начать новую тему   Ответить на тему    Торрент-трекер NNM-Club -> Классика кино и Фильмы до 90-х -> Отечественная Классика (HD*Rip/LQ, DVDRip, SATRip, VHSRip) Часовой пояс: GMT + 3
Страница 1 из 1