Интеллигентный торрент-трекер
canvas not supported
Нас вместе: 4 112 670

In-Grid - Passion (2009) [FLAC|Lossless]<Pop>


 
 
RSS
Начать новую тему   Ответить на тему    Торрент-трекер NNM-Club -> Pop -> Зарубежная поп-музыка (Lossless)
Автор Сообщение
Latgalec68 ®
Стаж: 10 лет 7 мес.
Сообщений: 16
Ratio: 46,63
Поблагодарили: 374
100%
latvia.gif
In-Grid - Passion (2009)
Год: 2009
Жанр: Pop
Продолжительность: 00:48:22

Кодек: FLAC
Тип рипа: image + .cue
Битрейт: Lossless

Трек лист:
01. Les Fous (3:31)
02. Le Dragueur (3:15)
03. Amour Ma Passion (3:25)
04. Movie Star (3:50)
05. Jalousie (3:19)
06. Les Jeux Sont Faits (3:24)
07. Sweet Desire (3:28)
08. Vive Le Swing (3:21)
09. C'est L'amour (3:25)
10. Le Cri Du Coeur (3:48)
11. Tout Pour Toi (3:18)
12. Papillonne Sur Moi (3:33)
13. A Ma Facon (3:18)
14. Tu Es La (feat. Pochill) (3:26)
Код:

Exact Audio Copy V0.99 prebeta 5 from 4. May 2009

Отчёт EAC об извлечении, выполненном 6. января 2010, 14:02

In-Grid / Passion

Дисковод: PIONEER DVD-RW  DVR-111D   Adapter: 0  ID: 0

Режим чтения                 : Достоверность
Использование точного потока : Да
Отключение кэша аудио        : Да
Использование указателей C2  : Нет

Коррекция смещения при чтении                     : 48
Способность читать области Lead-in и Lead-out     : Нет
Заполнение пропущенных сэмплов тишиной            : Да
Удаление блоков с тишиной в начале и конце        : Нет
При вычислениях CRC использовались нулевые сэмплы : Да
Интерфейс                                         : Встроенный Win32-интерфейс для Win NT/2000

Выходной формат : Внутренние WAV-операции
Формат сэмплов  : 44.100 Гц; 16 бит; стерео

TOC извлечённого CD

     Трек |   Старт  | Длительность | Начальный сектор | Конечный сектор
    ---------------------------------------------------------------------
       1  |  0:00.00 |    3:30.73   |           0      |      15822
       2  |  3:30.73 |    3:14.68   |       15823      |      30440
       3  |  6:45.66 |    3:25.23   |       30441      |      45838
       4  | 10:11.14 |    3:50.08   |       45839      |      63096
       5  | 14:01.22 |    3:18.60   |       63097      |      78006
       6  | 17:20.07 |    3:23.62   |       78007      |      93293
       7  | 20:43.69 |    3:28.35   |       93294      |     108928
       8  | 24:12.29 |    3:21.17   |      108929      |     124020
       9  | 27:33.46 |    3:24.63   |      124021      |     139383
      10  | 30:58.34 |    3:47.73   |      139384      |     156481
      11  | 34:46.32 |    3:18.19   |      156482      |     171350
      12  | 38:04.51 |    3:33.22   |      171351      |     187347
      13  | 41:37.73 |    3:18.05   |      187348      |     202202
      14  | 44:56.03 |    3:25.68   |      202203      |     217645

Характеристики диапазона извлечения и сообщения об ошибках

Выбранный диапазон

     Имя файла C:\Documents and Settings\Владелец\Рабочий стол\In-Grid - Passion (2010)\In-Grid - Passion.wav

     Пиковый уровень 100.0 %
     Качество диапазона 100.0 %
     CRC теста A1DED4AB
     CRC копии A1DED4AB
     Копирование... OK

Ошибок не произошло

AccurateRip: сводка

Трек  1  нет в базе данных
Трек  2  нет в базе данных
Трек  3  нет в базе данных
Трек  4  нет в базе данных
Трек  5  нет в базе данных
Трек  6  нет в базе данных
Трек  7  нет в базе данных
Трек  8  нет в базе данных
Трек  9  нет в базе данных
Трек 10  нет в базе данных
Трек 11  нет в базе данных
Трек 12  нет в базе данных
Трек 13  нет в базе данных
Трек 14  нет в базе данных

Ни одного трека нет в базе AccurateRip

Конец отчёта
Код:

AUDIOCHECKER v2.0 beta (build 457) - by Dester - opdester@freemail.hu
~~~~~~~~~~~~~~~~~~~~~~~~~~~~~~~~~~
-=== НЕ РЕДАКТИРУЙТЕ ЭТОТ ФАЙЛ! ===-

Путь: ...\In-Grid - Passion

1 -=- In-Grid - Passion.flac -=- CDDA (100%)

150302772



Поглощение/вытеснение
Только с согласия релизера

DesideriuM

Реставрация от: Pashketan
In-Grid - Passion[nnm-club.ru].torrent
 Торрент: Платиновая раздача  Зарегистрирован
 
Скачать


 Зарегистрирован:   09 Янв 2010 21:15:35
 Размер:   356 MB  (
 Рейтинг:   4,6 (Голосов: 16)
 Поблагодарили:   64
 Проверка:   Оформление проверено модератором 09 Янв 2010 22:05:06
Как cкачать  ·  Как раздать  ·  Правильно оформить  ·  Поднять ратио!  
strashnov
Стаж: 9 лет 8 мес.
Сообщений: 123
Ratio: 29,087
100%
russia.gif
Спасибо!
Показать сообщения:   
Начать новую тему   Ответить на тему    Торрент-трекер NNM-Club -> Pop -> Зарубежная поп-музыка (Lossless) Часовой пояс: GMT + 3
Страница 1 из 1