Классический форум-трекер
canvas not supported
Нас вместе: 4 068 665

Кабеи / Kabei (2008) DVDRip


 
 
RSS
Начать новую тему   Ответить на тему    Торрент-трекер NNM-Club -> Зарубежное кино -> Азиатское кино (HD*Rip/LQ, DVDRip, SATRip, VHSRip)
Автор Сообщение
YuryE ®
Uploaders 100+
 
Стаж: 12 лет 2 мес.
Сообщений: 1982
Ratio: 2804,113
Поблагодарили: 96371
100%
russia.gif
Кабеи / Kabei (2008) DVDRip
Год выпуска: 2008
Производство: Япония / Asahi Broadcasting, Eisei Gekijo, Hakuhodo DY Media Partners
Жанр: Драма

Описание фильма:
Во времена жесткого внутреннего террора, когда Япония готовится вступить во Вторую мировую войну, муж главной героини попадает в лагерь из-за своих политических взглядов.
Кабеи, оставшаяся одна с двумя детьми, не дает себе сдаться: назло всем — правительству, родному отцу, всему миру,- она не отказывается от мужа. Ее жизнь превращается в пример незаметного, непафосного, лишенного идеологии героизма, когда нужно накормить детей, послать в тюрьму теплое кимоно, сходить на собрание жильцов… И все это так, чтобы окружающие не заметили, насколько тебе тяжело.

Режиссер: Ёдзи Ямада
Актеры: Таданобу Асано, Тиэко Байсё, Мираи Сида, Денден, Мицуру Фукикоси, Саюри Ёсинага, Дайсукэ Гори, Реи Дэн, Такаси Сасано, Кэйко Тода

Продолжительность: 02:07:34
Качество видео: DVDRip
Перевод: Многоголосый закадровый, профессиональный



Дата мировой премьеры: 26 января 2008
Дата РФ премьеры: 25 сентября 2008, «Русский репортаж»
Дата выхода DVD релиза: 5 ноября 2009, «Кармен Видео»

Видео: MPEG-4 XviD, 672x368 (1.85:1), 25.000 fps, ~1136 Kb/s (0.184 bit/pixel)
Аудио#1: AC3, 48 kHz, 2.0 ch, 192 kbps, CBR | Russian
Аудио#2: AC3, 48 kHz, 2.0 ch, 192 kbps, CBR | Japanese
Код:
Общее
Полное имя                               : Kabei.2008.DVDRip.avi
Формат                                   : AVI
Формат/Информация                        : Audio Video Interleave
Размер файла                             : 1,37 Гбайт
Продолжительность                        : 2 ч. 7 м.
Общий поток                              : 1534 Кбит/сек
Программа кодирования                    : VirtualDubMod 1.5.10.2 (build 2540/release)
Библиотека кодирования                   : VirtualDubMod build 2540/release

Видео
Идентификатор                            : 0
Формат                                   : MPEG-4 Visual
Профиль формата                          : Advanced Simple@L5
Параметр BVOP формата                    : 2
Параметр QPel формата                    : Нет
Параметр GMC формата                     : Без точки перехода
Параметр матрицы формата                 : Default (MPEG)
Режим смешивания                         : Сжатый битовый поток
Идентификатор кодека                     : XVID
Идентификатор кодека/Подсказка           : XviD
Продолжительность                        : 2 ч. 7 м.
Битрейт                                  : 1136 Кбит/сек
Ширина                                   : 672 пикселя
Высота                                   : 368 пикселей
Соотношение сторон                       : 1,85:1
Частота кадров                           : 25,000 кадров/сек
Цветовое пространство                    : YUV
Субдискретизация насыщенности            : 4:2:0
Битовая глубина                          : 8 бит
Тип развёртки                            : Прогрессивная
Метод сжатия                             : С потерями
Бит/(Пиксели*Кадры)                      : 0.184
Размер потока                            : 1,01 Гбайт (74%)
Библиотека кодирования                   : XviD 1.2.0.dev47 (UTC 2006-11-01)

Аудио #1
Идентификатор                            : 1
Формат                                   : AC-3
Формат/Информация                        : Audio Coding 3
Расширение режима                        : CM (complete main)
Параметр Endianness формата              : Big
Идентификатор кодека                     : 2000
Продолжительность                        : 2 ч. 7 м.
Вид битрейта                             : Постоянный
Битрейт                                  : 192 Кбит/сек
Каналы                                   : 2 канала
Расположение каналов                     : Front: L R
Частота                                  : 48,0 КГц
Битовая глубина                          : 16 бит
Метод сжатия                             : С потерями
Размер потока                            : 175 Мбайт (13%)
Выравнивание                             : Разделение по промежуткам
Продолжительность промежутка             : 40  мс. (1,00 видеокадр)
Время предзагрузки промежутка            : 500  мс.

Аудио #2
Идентификатор                            : 2
Формат                                   : AC-3
Формат/Информация                        : Audio Coding 3
Расширение режима                        : CM (complete main)
Параметр Endianness формата              : Big
Идентификатор кодека                     : 2000
Продолжительность                        : 2 ч. 7 м.
Вид битрейта                             : Постоянный
Битрейт                                  : 192 Кбит/сек
Каналы                                   : 2 канала
Расположение каналов                     : Front: L R
Частота                                  : 48,0 КГц
Битовая глубина                          : 16 бит
Метод сжатия                             : С потерями
Размер потока                            : 175 Мбайт (13%)
Выравнивание                             : Разделение по промежуткам
Продолжительность промежутка             : 40  мс. (1,00 видеокадр)
Время предзагрузки промежутка            : 500  мс.
Скриншоты:

Реставрация от: Viсtоr
Спасибо за
[NNM-Club.ru]_Kabei.2008.DVDRip.torrent
 Торрент: Платиновая раздача  Зарегистрирован
 
Скачать


 Зарегистрирован:   11 Ноя 2009 06:26:30
 Размер:   1,37 GB  (
 Рейтинг:   4,7 (Голосов: 20)
 Поблагодарили:   94
 Проверка:   Оформление проверено модератором 11 Ноя 2009 18:19:11
Как cкачать  ·  Как раздать  ·  Правильно оформить  ·  Поднять ратио!  
matveyushka
Стаж: 9 лет 10 мес.
Сообщений: 156
Ratio: 1,467
100%
ussr.gif
Очень интересно. Азиатские фильмы такого плана, очень занимательные. Огромное спасибо. если есть ещё какие выкладывайте. Благодарю.
kot_vaska
Стаж: 9 лет 4 мес.
Сообщений: 9
Ratio: 8,52
Поблагодарили: 1
23.46%
russia.gif
Отличный фильм. Очень хорошая работа.
Во время просмотра ни разу не сходил покурить, а это много значит...)
an_other
Стаж: 11 лет 5 мес.
Сообщений: 39
Ratio: 2,533
100%
russia.gif
Цитата:
Отличный фильм. Очень хорошая работа.
Во время просмотра ни разу не сходил покурить, а это много значит...)

ни разу говришь !, значит качаю... спасибо!
bat_zlat.x
Стаж: 10 лет 7 мес.
Сообщений: 16
Ratio: 0,588
77.62%
spain.gif
Фильм и правда отличнъи.О жизни во время воинъ. :плач: Мне понравилась.
droll
Стаж: 11 лет 2 мес.
Сообщений: 55
Ratio: 1,298
100%
ukraine.gif
Ну чтож, комрады, прислушаюсь и я к Вашему мнению. Ставлю на закачку :0)
blind84
Стаж: 9 лет 7 мес.
Сообщений: 37
Ratio: 1,097
100%
russia.gif
+1
_В_О_Л_К_
Стаж: 9 лет 10 мес.
Сообщений: 164
Ratio: 5,363
100%
russia.gif
качаю... спасибо!
Mortal.20
Стаж: 10 лет 9 мес.
Сообщений: 359
Ratio: 9,251
100%
russia.gif
поставил 4
добротный фильм про японскую семью во время войны...
даже после этого фильма задумался- до чего же наша советская власть не любила своих граждан...
bakhtik
Стаж: 9 лет 10 мес.
Сообщений: 11
Ratio: 1,874
Поблагодарили: 748
100%
очень хороший фильм.
очередное перевоплощение Асано Таданобу :) Хорошой актер.
ermek17

Online
Стаж: 4 года 11 мес.
Сообщений: 54
Ratio: 11,928
100%
Большое спасибо за такой фильм!
Показать сообщения:   
Начать новую тему   Ответить на тему    Торрент-трекер NNM-Club -> Зарубежное кино -> Азиатское кино (HD*Rip/LQ, DVDRip, SATRip, VHSRip) Часовой пояс: GMT + 3
Страница 1 из 1