Классический форум-трекер
canvas not supported
Нас вместе: 4 086 902

Девушка по вызову / The Girlfriend Experience (2009) DVDRip


Страницы:  1, 2  След. 
 
RSS
Начать новую тему   Ответить на тему    Торрент-трекер NNM-Club -> Зарубежное кино -> Зарубежные Фильмы (HD*Rip/LQ, DVDRip, SATRip, VHSRip)
Автор Сообщение
GhostFace83 ®
Стаж: 10 лет 6 мес.
Сообщений: 320
Ratio: 1512,721
Поблагодарили: 37007
22.96%
russia.gif
Девушка по вызову / The Girlfriend Experience (2009) DVDRip
Русское название: Девушка по вызову
Оригинальное название: The Girlfriend Experience
Страна: США
Студия: Magnolia Pictures , 2929 Productions , Extension 765
Год выпуска: 2009

Жанр: Драма
Описание фильма: Действие драмы разворачивается во время выборов президента в 2008 году и рассказывает о девушке по вызову из Манхэттена, которая сталкивается с проблемами по поводу ее парня, клиентов и работы.

Режиссер: Стивен Содерберг / Steven Soderbergh
Актеры: Саша Грэй, Крис Сантос, Филип Эйтан, T. Colby Trane, Питер Зиззо, Рон Стейн, Маршалл Гилман, Майкл Робертс, Vincent Dellacera, Джим Кемпнер
Продолжительность: 01:16:18
Качество видео: DVDRip
Перевод: Двухголосый закадровый, профессиональный



Дата мировой премьеры: 20.01.2009
Дата российской премьеры: 22.10.2009, «Каскад»
Дата выхода DVD релиза: 3 декабря 2009, «Союз-Видео»

Видео: XviD MPEG-4 ~2294 kbps avg, 720x304 (2.37:1), 23.976 fps, 0.44 bit/pixel
Аудио #1: Русский 48 kHz, MPEG Layer 3, 2 ch, ~128.00 kbps avg
Аудио #2: Английский 48 kHz, MPEG Layer 3, 2 ch, ~128.00 kbps avg
Код:
General
Format : AVI
Format/Info : Audio Video Interleave
File size : 1.37 GiB
Duration : 1h 16mn
Overall bit rate : 2 566 Kbps
Movie name : The Girlfriend Experience (2009)
Director : HITFILMS
Writing application : VirtualDubModRus 1.5.10.2 (build 2542/release)

Video
ID : 0
Format : MPEG-4 Visual
Format profile : AdvancedSimple@L5
Format settings, BVOP : Yes
Format settings, QPel : No
Format settings, GMC : No warppoints
Format settings, Matrix : Default (MPEG)
Muxing mode : Packed bitstream
Codec ID : XVID
Codec ID/Hint : XviD
Duration : 1h 16mn
Bit rate : 2 295 Kbps
Width : 720 pixels
Height : 304 pixels
Display aspect ratio : 2.35:1
Frame rate : 23.976 fps
Resolution : 24 bits
Colorimetry : 4:2:0
Scan type : Progressive
Bits/(Pixel*Frame) : 0.437
Stream size : 1.22 GiB (89%)
Writing library : XviD 1.2.1 (UTC 2008-12-04)

Audio #1
ID : 1
Format : MPEG Audio
Format version : Version 1
Format profile : Layer 3
Codec ID : 55
Codec ID/Hint : MP3
Duration : 1h 16mn
Bit rate mode : Constant
Bit rate : 128 Kbps
Channel(s) : 2 channels
Sampling rate : 44.1 KHz
Resolution : 16 bits
Stream size : 69.9 MiB (5%)
Alignment : Split accross interleaves
Interleave, duration : 42 ms (1.00 video frame)
Interleave, preload duration : 500 ms

Audio #2
ID : 2
Format : MPEG Audio
Format version : Version 1
Format profile : Layer 3
Codec ID : 55
Codec ID/Hint : MP3
Duration : 1h 16mn
Bit rate mode : Constant
Bit rate : 128 Kbps
Channel(s) : 2 channels
Sampling rate : 44.1 KHz
Resolution : 16 bits
Stream size : 69.9 MiB (5%)
Alignment : Split accross interleaves
Interleave, duration : 42 ms (1.00 video frame)
Interleave, preload duration : 500 ms
Скриншоты:
[NNM-Club.ru]_Devushka.po.vyzovu.2009.P.DVDRip.avi.torrent
 Торрент: Платиновая раздача  Зарегистрирован
 
Скачать


 Зарегистрирован:   08 Сен 2009 22:32:34
 Размер:   1,37 GB  (
 Рейтинг:   4,3 (Голосов: 39)
 Поблагодарили:   175
 Проверка:   Оформление проверено модератором 09 Сен 2009 07:43:42
Как cкачать  ·  Как раздать  ·  Правильно оформить  ·  Поднять ратио!  
Vitjock
Стаж: 10 лет 2 мес.
Сообщений: 85
Ratio: 11,355
Поблагодарили: 2354
100%
Откуда: KokoH
krevedko.png
спасибо!посмотрим!
RembaXXX
Стаж: 9 лет 5 мес.
Сообщений: 513
Ratio: 4,107
6.36%
Откуда: Москва
russia.gif
Порнозвезда в главной роли? Хм...
Sсhelma
Стаж: 9 лет 6 мес.
Сообщений: 10
Ratio: 2,96
5.97%
russia.gif
отчего та перевод совсем не литературный... очень похоже что со словарем учеником 5 класса... )))
celty
Стаж: 10 лет 8 мес.
Сообщений: 215
Ratio: 12,339
Откуда: HohLand
Ну, и как фильм?
Xen
Стаж: 11 лет 10 мес.
Сообщений: 4
Ratio: 1,514
0.6%
Что это за [отстой]??? Что за перевод? Такое ощущение, что пользовались электронным переводчиком и потом просто прочитали... какой нафик "Двухголосый закадровый, профессиональный"
Dziro_
Стаж: 11 лет 4 мес.
Сообщений: 301
Ratio: 3,622
Поблагодарили: 95
100%
За два года работы в роли порномодели снялась в более чем в полутораста порнографических и эротических фильмах. Также ей удалось попасть в «избранный круг» актёров порно (Кекилли Сибель , Рокко Сиффреди, Рон Джереми) сыгравших в мейнстримном кинематографе.

хехе
bat_zlat.x
Стаж: 10 лет 2 мес.
Сообщений: 16
Ratio: 0,588
77.62%
spain.gif
Посмотрела 15мин. на г................. :кругом голова:
kl7y5o2
Стаж: 10 лет 6 мес.
Сообщений: 119
Ratio: 14,627
100%
ukraine.gif
как по мне, фильм интересный, хоть и на любителя, но «профессиональным» переводчикам надо все кости переломать... испоганили фильм :(
daemonn
Стаж: 10 лет 6 мес.
Сообщений: 1
Ratio: 1,794
100%
Откуда: Москва
russia.gif
оригинальная (английская) дорожка есть? или для красоты написали?
GhostFace83 ®
Стаж: 10 лет 6 мес.
Сообщений: 320
Ratio: 1512,721
Поблагодарили: 37007
22.96%
russia.gif
daemonn писал(а): link
оригинальная (английская) дорожка есть? или для красоты написали?

Всё, что указано в описании имеется =) И не ради красоты
lelik4
Стаж: 11 лет 2 мес.
Сообщений: 180
Ratio: 4,007
Поблагодарили: 1210
100%
Откуда: город-герой Москва
russia.gif
Скажите перевод вот этот?
http://www.youtube.com/watch?v=ISZyezxCL8Q&feature=player_embedded
GhostFace83 ®
Стаж: 10 лет 6 мес.
Сообщений: 320
Ratio: 1512,721
Поблагодарили: 37007
22.96%
russia.gif
lelik4 писал(а): link
Скажите перевод вот этот?
http://www.youtube.com/watch?v=ISZyezxCL8Q&feature=player_embedded

Да
noraus
Стаж: 9 лет 1 мес.
Сообщений: 26
Ratio: 3,903
1.37%
дело было так
http://dl.getdropbox.com/u/1566859/689250.htm
swr23
Стаж: 10 лет 1 мес.
Сообщений: 26
Ratio: 17,324
100%
russia.gif
noraus писал(а): link

Вот-вот. Я тоже на ЯПе посмотрел фрагмент - мозг взорвался. Ребята переводчики задолбались редактировать некачественно переведенные сабы, которые им присылали. И решили озвучить перевод (промпт, наверное) как есть. Представляю как им было тяжело не рассмеятся, озвучивая этот бред серьезными голосами. Так что кому хочется приколоться над качеством программ-переводчиков - наверное стоит посмотреть.
Показать сообщения:   
Начать новую тему   Ответить на тему    Торрент-трекер NNM-Club -> Зарубежное кино -> Зарубежные Фильмы (HD*Rip/LQ, DVDRip, SATRip, VHSRip) Часовой пояс: GMT + 3
Страницы:  1, 2  След.
Страница 1 из 2