Классический форум-трекер
canvas not supported
Нас вместе: 4 086 894

Будильник / Alarm (2009) DVDRip


 
 
RSS
Начать новую тему   Ответить на тему    Торрент-трекер NNM-Club -> Мультфильмы -> Зарубежные Мультфильмы (HD*Rip/LQ, DVDRip, SATRip, VHSRip)
Автор Сообщение
Venta10 ®
Стаж: 10 лет 4 мес.
Сообщений: 814
Ratio: 13,88
Поблагодарили: 18719
100%
Откуда: Елгава city
latvia.gif
Будильник / Alarm (2009, Корея) DVDRip


Язык: Не требуется
Страна: Корея
Год выпуска: 2009

Описание:
Будильник "лучший друг" человека! Мультфильм для всех, кто не любит вставать по утрам, а лишнюю минутку поспать.

Режиссер: Джанг Му Хюн
Персонажи: Будильник в роли самого себя

Продолжительность: 00:08:49
Перевод: Без слов / Немой
Видео: ~1026 kbps, 0.14 bit/pixel, 704x400 (1.76:1), 25 fps, XviD build 50
Качество видео: DVDRip
Битрейт аудио: 48 kHz, AC3 2.0, ~192 kbps
Общее
Полное имя :Будильник. (Alarm). 2009.avi
Формат : AVI
Формат/Информация : Audio Video Interleave
Размер файла : 77,5 Мбайт
Продолжительность : 8 м. 50 с.
Общий поток : 1225 Кбит/сек
Программа кодирования : VirtualDubMod 1.5.4.1 (build 2178/release)
Правообладатель : DVDRip by GENADIY

Видео
Идентификатор : 0
Формат : MPEG-4 Visual
Профиль формата : Advanced Simple@L5
Параметр BVOP формата : Нет
Параметр QPel формата : Нет
Параметр GMC формата : Без точки перехода
Параметр матрицы формата : Выборочная
Идентификатор кодека : XVID
Идентификатор кодека/Подсказка : XviD
Продолжительность : 8 м. 50 с.
Битрейт : 1026 Кбит/сек
Ширина : 704 пикселя
Высота : 400 пикселей
Соотношение сторон : 16:9
Частота кадров : 25,000 кадров/сек
Цветовое пространство : YUV
Субдискретизация насыщенности : 4:2:0
Битовая глубина : 8 бит
Тип развёртки : Прогрессивная
Метод сжатия : С потерями
Бит/(Пиксели*Кадры) : 0.146
Размер потока : 64,9 Мбайт (84%)
Библиотека кодирования : XviD 1.2.1 (UTC 2008-12-04)

Аудио
Идентификатор : 1
Формат : AC-3
Формат/Информация : Audio Coding 3
Расширение режима : CM (complete main)
Идентификатор кодека : 2000
Продолжительность : 8 м. 50 с.
Вид битрейта : Постоянный
Битрейт : 192 Кбит/сек
Каналы : 2 канала
Расположение каналов : Front: L R
Частота : 48,0 КГц
Битовая глубина : 16 бит
Метод сжатия : С потерями
Размер потока : 12,1 Мбайт (16%)
Выравнивание : Разделение по промежуткам
Продолжительность промежутка : 96 мс. (2,40 видеокадра)
Время предзагрузки промежутка : 96 мс.
Скриншоты:


Время раздачи: 18:00-24:00
[NNM-Club.ru]_Alarm.2009..DVDRip.avi.torrent
 Торрент: Платиновая раздача  Зарегистрирован
 
Скачать


 Зарегистрирован:   04 Сен 2009 21:31:33
 Размер:   77,5 MB  (
 Рейтинг:   4,5 (Голосов: 30)
 Поблагодарили:   155
 Проверка:   Оформление проверено модератором 06 Сен 2009 15:27:40
Как cкачать  ·  Как раздать  ·  Правильно оформить  ·  Поднять ратио!  
Крылатый
Стаж: 9 лет 4 мес.
Сообщений: 946
Ratio: 12,352
Раздал: 35,42 TB
Поблагодарили: 1495
100%
Классный мульт) Спасибо!)
Venta10 ®
Стаж: 10 лет 4 мес.
Сообщений: 814
Ratio: 13,88
Поблагодарили: 18719
100%
Откуда: Елгава city
latvia.gif
Крылатый
:приветствую:

_________________
BarShadow
Куратор КПК
и Мобилок
Стаж: 7 лет 6 мес.
Сообщений: 17271
Ratio: 46,988
Поблагодарили: 20538
100%
Откуда: Пятая планета от Солнца
wild_hogs.gif
Общее
Полное имя :Будильник. (Alarm). 2009.avi
Формат : AVI
Формат/Информация : Audio Video Interleave
Размер файла : 77,5 Мбайт
Продолжительность : 8 м. 50 с.
Общий поток : 1225 Кбит/сек
Программа кодирования : VirtualDubMod 1.5.4.1 (build 2178/release)
Правообладатель : DVDRip by GENADIY

Видео
Идентификатор : 0
Формат : MPEG-4 Visual
Профиль формата : Advanced Simple@L5
Параметр BVOP формата : Нет
Параметр QPel формата : Нет
Параметр GMC формата : Без точки перехода
Параметр матрицы формата : Выборочная
Идентификатор кодека : XVID
Идентификатор кодека/Подсказка : XviD
Продолжительность : 8 м. 50 с.
Битрейт : 1026 Кбит/сек
Ширина : 704 пикселя
Высота : 400 пикселей
Соотношение сторон : 16:9
Частота кадров : 25,000 кадров/сек
Цветовое пространство : YUV
Субдискретизация насыщенности : 4:2:0
Битовая глубина : 8 бит
Тип развёртки : Прогрессивная
Метод сжатия : С потерями
Бит/(Пиксели*Кадры) : 0.146
Размер потока : 64,9 Мбайт (84%)
Библиотека кодирования : XviD 1.2.1 (UTC 2008-12-04)

Аудио
Идентификатор : 1
Формат : AC-3
Формат/Информация : Audio Coding 3
Расширение режима : CM (complete main)
Идентификатор кодека : 2000
Продолжительность : 8 м. 50 с.
Вид битрейта : Постоянный
Битрейт : 192 Кбит/сек
Каналы : 2 канала
Расположение каналов : Front: L R
Частота : 48,0 КГц
Битовая глубина : 16 бит
Метод сжатия : С потерями
Размер потока : 12,1 Мбайт (16%)
Выравнивание : Разделение по промежуткам
Продолжительность промежутка : 96 мс. (2,40 видеокадра)
Время предзагрузки промежутка : 96 мс.
Sinnbirg
Стаж: 9 лет 1 мес.
Сообщений: 34
Ratio: 12,597
Раздал: 6,905 TB
100%
russia.gif
Автору респект !!! Всё как в моей жизни (вот тока свою пневматику ещё не применял по такому назначению) а финал так точно из жизни ))
Показать сообщения:   
Начать новую тему   Ответить на тему    Торрент-трекер NNM-Club -> Мультфильмы -> Зарубежные Мультфильмы (HD*Rip/LQ, DVDRip, SATRip, VHSRip) Часовой пояс: GMT + 3
Страница 1 из 1