Интеллигентный торрент-трекер
canvas not supported
Нас вместе: 4 112 459

Moby - Wait For Me (2009) [APE|Lossless]< Experimental, Ambient >


 
 
RSS
Начать новую тему   Ответить на тему    Торрент-трекер NNM-Club -> Electronic -> Easy listening (Lossless)
Автор Сообщение
slava03 ®
Uploaders 100+
 
Стаж: 10 лет 11 мес.
Сообщений: 846
Ratio: 1219,849
Поблагодарили: 11139
100%
Moby - Wait For Me (2009)
Год: 2009
Label: Little Idiot
Жанр: Experimental, Ambient
Продолжительность: 00:51:50

Кодек: APE
Битрейт: Lossless
Тип раздачи: image+.cue
Наличие сканов в содержимом раздачи: да

Треклист:
01. Division (01:56)
02. Pale Horses (03:35)
03. Shot In The Back Of The Head (03:14)
04. Study War (04:18)
05. Walk With Me (04:01)
06. Stock Radio (00:55)
07. Mistake (03:46)
08. Scream Pilots (02:46)
09. Jltf 1 (01:27)
10. Jltf (04:39)
11. A Seated Night (03:22)
12. Wait For Me (04:14)
13. Hope Is Gone (03:30)
14. Ghost Return (02:39)
15. Slow Light (03:59)
16. Isolate (03:28)
«Ничего не может быть прекрасней творчества ради творчества». Дэвид Линч

«Я не знаю, понравится ли кому-нибудь этот альбом, хорошо ли он продастся… Но делать что-то на своих собственных основаниях, что-то в первую очередь важное для тебя самого и не думать о чартах и продажах, а просто записывать пластинку ради самой пластинки — это, скажу я вам, потрясающие ощущения». Moby
«Мой друг сделал фотосессию, а я сам полностью оформил альбом, записал его в своей спальне и свел его вместе с одним сумасшедшим панк-рокером, который терялся каждый раз по пути в студию».
«Я абсолютно отдаю себе отчет в том, что то, как она записывалась и сводилась, не предполагает, что „Wait For Me“ произведёт эффект разорвавшейся бомбы. Я в последнее время стал всё чаще замечать, что прослушивая тот или иной современный альбом, я ощущаю, что мне как будто бы орут прямо в лицо. Большинство современных записей такие громкие, дерзкие и требовательные! Иногда это звучит действительно круто. Но, с другой стороны, когда каждый инструмент записан на максимальной громкости, а вокал просто сбивает тебя с ног и всё вокруг буквально искрит и взрывается, не остается места для утонченности и недосказанности. Такие пластинки мне не хочется слушать у себя дома. Да, они абсолютно идеально подходят под ситуацию, когда ты мчишься по хайвею на максимальной скорости и слушаешь какую-нибудь популярную коммерческую радиостанцию из разряда ТОП40. Но в своем личном пространстве я отдаю предпочтение не отягощенным различными техническими наворотами старым блюзовым пластинкам, которые достаточно аскетичны и просты по звучанию. Так вот я это к тому, что мою последнюю запись я и хотел выполнить в этом же ключе»
Moby - Wait For Me [MP3|≈195 kbps]
Код:
Exact Audio Copy V0.99 prebeta 5 from 4. May 2009

EAC extraction logfile from 2. September 2009, 15:41

Moby / Wait For Me

Used drive  : BENQ    DVD DD DW1640   Adapter: 1  ID: 1

Read mode               : Secure
Utilize accurate stream : Yes
Defeat audio cache      : Yes
Make use of C2 pointers : No

Read offset correction                      : 618
Overread into Lead-In and Lead-Out          : No
Fill up missing offset samples with silence : Yes
Delete leading and trailing silent blocks   : No
Null samples used in CRC calculations       : Yes
Used interface                              : Installed external ASPI interface

Used output format : Internal WAV Routines
Sample format      : 44.100 Hz; 16 Bit; Stereo

TOC of the extracted CD

     Track |   Start  |  Length  | Start sector | End sector
    ---------------------------------------------------------
        1  |  0:00.00 |  1:56.61 |         0    |     8760
        2  |  1:56.61 |  3:34.50 |      8761    |    24860
        3  |  5:31.36 |  3:13.43 |     24861    |    39378
        4  |  8:45.04 |  4:18.20 |     39379    |    58748
        5  | 13:03.24 |  4:01.29 |     58749    |    76852
        6  | 17:04.53 |  0:55.24 |     76853    |    81001
        7  | 18:00.02 |  3:45.71 |     81002    |    97947
        8  | 21:45.73 |  2:45.33 |     97948    |   110355
        9  | 24:31.31 |  1:27.01 |    110356    |   116881
       10  | 25:58.32 |  4:39.05 |    116882    |   137811
       11  | 30:37.37 |  3:22.29 |    137812    |   152990
       12  | 33:59.66 |  4:13.41 |    152991    |   172006
       13  | 38:13.32 |  3:30.16 |    172007    |   187772
       14  | 41:43.48 |  2:38.36 |    187773    |   199658
       15  | 44:22.09 |  3:59.25 |    199659    |   217608
       16  | 48:21.34 |  3:28.26 |    217609    |   233234

Range status and errors

Selected range

     Filename D:\Music Lossless\Moby - Wait For Me\Moby - Wait For Me.wav

     Peak level 97.7 %
     Range quality 99.9 %
     Copy CRC 88BACC62
     Copy OK

No errors occurred

End of status report
Код:
-----------------------

DON'T MODIFY THIS FILE

-----------------------

PERFORMER: auCDtect Task Manager, ver. 1.6.0 RC1 build 1.6.0.1
Copyright (c) 2008-2010 y-soft. All rights reserved
http://y-soft.org

ANALYZER: auCDtect: CD records authenticity detector, version 0.8.2
Copyright (c) 2004 Oleg Berngardt. All rights reserved.
Copyright (c) 2004 Alexander Djourik. All rights reserved.

FILE: Moby - Wait For Me.ape
  Size: 303761953 Hash: 4803CDFCE8E5123A0424DCB4B2B63FAD Accuracy: -m0
  Conclusion: CDDA 100%
  Signature: AE78CA9136FD1D7668D2DBD84C71AFC5AD877A0C
Код:

AUDIOCHECKER v2.0 beta (build 457) - by Dester - opdester@freemail.hu
~~~~~~~~~~~~~~~~~~~~~~~~~~~~~~~~~~
-=== НЕ РЕДАКТИРУЙТЕ ЭТОТ ФАЙЛ! ===-

Путь: ...\Moby - Wait For Me (2009)

1 -=- Moby - Wait For Me.ape -=- CDDA (100%)

87475540
Время раздачи: 24/7


Поглощение/вытеснение
Только с согласия релизера

DesideriuM

Реставрация релиза: DesideriuM
[NNM-Club.ru]_Moby - Wait For Me (2009).torrent
 Торрент: Платиновая раздача  Зарегистрирован
 
Скачать


 Зарегистрирован:   04 Сен 2009 11:05:30
 Размер:   291 MB  (
 Рейтинг:   4,9 (Голосов: 47)
 Поблагодарили:   188
 Проверка:   Оформление проверено модератором 04 Сен 2009 20:43:01
Как cкачать  ·  Как раздать  ·  Правильно оформить  ·  Поднять ратио!  
Lost
Стаж: 11 лет 8 мес.
Сообщений: 69
Ratio: 0,694
4.2%
germany.gif
Отличный альбом!
malandra
Мисс Relax
Стаж: 8 лет 11 мес.
Сообщений: 627
Ratio: 18,084
100%
Откуда: Orion
Тянет меня их слушать, до сих пор не поняла ,почему, да и не хочу понимать,нравится и все тут.spasibo

_________________
Среди моря голосов ты услышь мое молчание..
KroMvEL
Стаж: 9 лет 2 мес.
Сообщений: 5
Ratio: 4,443
100%
Откуда: Нетизен
Хороший альбом. Качнул бы, да есть уже...на файлообменниках альбомы Moby долго не живут. Может посидирую автору поста. Спасибо!
slava03 ®
Uploaders 100+
 
Стаж: 10 лет 11 мес.
Сообщений: 846
Ratio: 1219,849
Поблагодарили: 11139
100%
KroMvEL писал(а):
Сообщ.: 1
Наше Вам! :приветствую:
Цитата:
файлообменники
Да ну их, в самом деле, у нас лучше!
Moby, похоже, лукавил про «Я не знаю... хорошо ли он продастся…» Альбом обречен на хорошую продаваемость. Чего всем и желаю!
Lucky73
Стаж: 9 лет 2 мес.
Сообщений: 30
Ratio: 9,515
Поблагодарили: 305
100%
russia.gif
спасибо! :стеб:

_________________
paukoff
Стаж: 11 лет 5 мес.
Сообщений: 85
Ratio: 2,081
Раздал: 1,096 TB
Поблагодарили: 264
100%
logo.gif
Спасибо /

Moby хороший дядька.
Fedisson
Стаж: 8 лет 7 мес.
Сообщений: 18
Ratio: 1,914
100%
russia.gif
скажите а как запустить музыку , я что-то первый раз с такими файлами сталкиваюсь
kiril​lius-​74​
Стаж: 8 лет 10 мес.
Сообщений: 24
Ratio: 2,567
100%
russia.gif
Спасибо!!!
nextel3017
Стаж: 8 лет 5 мес.
Сообщений: 3
Ratio: 12,247
0%
afghanistan.gif
Что то мне не очень понравился, вроде один из худших его альбомов
Dastan_kz
Стаж: 7 лет 2 мес.
Сообщений: 6
Ratio: 5,786
30.77%
kazakhstan.gif
vstan`te ludi na rada4u!)
RrULER
Стаж: 7 лет 1 мес.
Сообщений: 7
Ratio: 38,738
100%
logo.gif
блин там не по трекам что ли? в одном файле все?
BULDOZER
Стаж: 7 лет 9 мес.
Сообщений: 303
Ratio: 32,006
Раздал: 21,1 TB
100%
Откуда: вільна Україна
ukraine.gif
Нормальный альбом. Мне понравился. Спасибо.
Показать сообщения:   
Начать новую тему   Ответить на тему    Торрент-трекер NNM-Club -> Electronic -> Easy listening (Lossless) Часовой пояс: GMT + 3
Страница 1 из 1