Интеллигентный торрент-трекер
canvas not supported
Нас вместе: 4 096 770

Райские птицы (2008) DVDRip


 
 
RSS
Начать новую тему   Ответить на тему    Торрент-трекер NNM-Club -> Отечественное кино -> Отечественные Фильмы (HD*Rip/LQ, DVDRip, SATRip, VHSRip)
Автор Сообщение
YuryE ®
Uploaders 100+
 
Стаж: 11 лет 7 мес.
Сообщений: 1982
Ratio: 2800,888
Поблагодарили: 96022
100%
russia.gif
Райские птицы (2008) DVDRip
Русское название: Райские птицы
Год выпуска: 2008
Производство: Украина, СОТА Синема Групп
Жанр: Драма

Дата мировой премьеры: 10 февраля 2009
Дата российской премьеры: 1 января 2008

Режиссер: Роман Балаян
Актеры: Андрей Кузичев, Оксана Акиньшина, Олег Янковский, Егор Пазенко, Сергей Романюк, Валентин Томусяк, Вячеслав Шеховцов

Описание фильма:
Действие фильма разворачивается в СССР начала 1980-х. Времена открытых массовых преследований вроде бы и в прошлом, но слушать зарубежные радиостанции все еще запрещено, а высказывать свое мнение в присутствии посторонних людей — небезопасно. Каждый стук в дверь все еще заставляет вздрагивать. Слова правды звучат только на кухнях, за зашторенными окнами, да пробиваются в машинописных книгах, «самиздата». Их передают тихо, исподволь, только проверенным друзьям, опасаясь преследований. КГБ прослушивает телефоны, следит за «неблагонадежными», и планомерно, шаг за шагом, уничтожает все ростки инакомыслия. Главным героям предстоит выступить против бесчеловечной государственной машины, поставить на кон свои жизни и доказать, что на пути к настоящей свободе остановить человека не в состоянии никто и ничто.



Продолжительность: 01:34:17
Качество видео: DVDRip

Видеокодек: Xvid
Битрейт видео: ~1840 kb/s
Размер кадра: 704x400
Аудиокодек: MP3 (2ch)
Битрейт аудио: 224 kb/s
Общее
Полное имя : D:\Raiskie.ptitsi.2008.O.DVDRip.avi
Формат : AVI
Формат/Информация : Audio Video Interleave
Размер файла : 1,36 Гбайт
Продолжительность : 1 ч. 34 м.
Общий поток : 2071 Кбит/сек
Программа кодирования : VirtualDubMod 1.5.4.1 (build 2178/release)
Библиотека кодирования : VirtualDubMod build 2178/release

Видео
Идентификатор : 0
Формат : MPEG-4 Visual
Профиль формата : Advanced Simple@L5
Параметр BVOP формата : 1
Параметр QPel формата : Нет
Параметр GMC формата : Без точки перехода
Параметр матрицы формата : Выборочная
Идентификатор кодека : XVID
Идентификатор кодека/Подсказка : XviD
Продолжительность : 1 ч. 34 м.
Битрейт : 1840 Кбит/сек
Ширина : 704 пикселя
Высота : 400 пикселей
Соотношение сторон : 16:9
Частота кадров : 25,000 кадров/сек
Цветовое пространство : YUV
Субдискретизация насыщенности : 4:2:0
Битовая глубина : 8 бит
Тип развёртки : Прогрессивная
Метод сжатия : С потерями
Бит/(Пиксели*Кадры) : 0.261
Размер потока : 1,21 Гбайт (89%)
Библиотека кодирования : XviD 1.3.0.dev55

Аудио
Идентификатор : 1
Формат : MPEG Audio
Версия формата : Version 1
Профиль формата : Layer 2
Идентификатор кодека : 50
Продолжительность : 1 ч. 34 м.
Вид битрейта : Постоянный
Битрейт : 224 Кбит/сек
Каналы : 2 канала
Частота : 48,0 КГц
Метод сжатия : С потерями
Размер потока : 151 Мбайт (11%)
Выравнивание : Соединение по промежуткам
Продолжительность промежутка : 80 мс. (2,00 видеокадра)
Время предзагрузки промежутка : 504 мс.
Скриншоты:


Райские птицы  на NNM-club
Время раздачи: Круглосуточно
Реставрация от: АлексКуз
[NNM-Club.ru]_Raiskie.ptitsi.2008.O.DVDRip.torrent
 Торрент: Платиновая раздача  Зарегистрирован
 
Скачать


 Зарегистрирован:   04 Сен 2009 03:57:21
 Размер:   1,36 GB  (
 Рейтинг:   3,9 (Голосов: 32)
 Поблагодарили:   216
 Проверка:   Оформление проверено модератором 05 Сен 2009 21:10:59
Как cкачать  ·  Как раздать  ·  Правильно оформить  ·  Поднять ратио!  
tekilla
Стаж: 8 лет 11 мес.
Сообщений: 6
Ratio: 17,936
6.82%
Отпишитесь плиз камрады, как фильмец?
Novochek
Стаж: 11 лет 6 мес.
Сообщений: 21
Ratio: 1,123
73.33%
фильм не легкий, но посмотреть стоит, даже надо.
Smotri100
Стаж: 9 лет
Сообщений: 27
100%
russia.gif
....... но слушать зарубежные радиостанции все еще запрещено, а высказывать свое мнение в присутствии посторонних людей — небезопасно. Каждый стук в дверь все еще заставляет вздрагивать. Слова правды звучат только на кухнях, за зашторенными окнами, да пробиваются в машинописных книгах, «самиздата». Их передают тихо, исподволь, только проверенным друзьям, опасаясь преследований. КГБ прослушивает телефоны, следит за «неблагонадежными», и планомерно, шаг за шагом, уничтожает все ростки инакомыслия. Главным героям предстоит выступить против бесчеловечной государственной машины, поставить на кон свои жизни и доказать, что на пути к настоящей свободе остановить человека не в состоянии никто и ничто.

Описание дешовая пропаганда! Недоучившегося в союзе неудачника, свалившего за бугор. Кто на Родине был не кем, на чужбине не станет всем. Бла-бла-бла. Это плевок в лицо. Ваши мамы-бабушки, деды-отцы быдло. Смотреть расхотелось!!!
hotme​anfri​w​
Стаж: 10 лет 6 мес.
Сообщений: 52
Ratio: 0,527
20.28%
russia.gif
УРОД!
Вместо фильма раздет Трансляция возобновится в 8 часов , ни какого фильма !!!!

Добавлено спустя 2 минуты 56 секунд:

Намано он себе ратио накручивает !!!!
17101962
Стаж: 9 лет 4 мес.
Сообщений: 704
Ratio: 1,568
100%
Откуда: Усть-​Камен​огорс​к​
kazakhstan.gif
Тема о диссидентах уже сама по себе интересна! Фильм очень хорошо срежессирован и актёры сыграли свои роли замечательно! Единственное слабое место в фильме - не очень убедительно раскрыта тема полётов главных героев!
Но, мне сдаётся, что это издержки кино! Книга, я думаю, намного интересней и убедительней!
Kollega007
 
Стаж: 4 года 11 мес.
Сообщений: 164
Ratio: 40,553
100%
Откуда: Москва
ussr.gif
отличный фильм, однако, сомневаюсь что современные ровесники ГГ его поймут...

_________________
OM-D E-M5, E-M5-2, mZuiko: 12-50, 75 f/1.8, 45 f/1.8, 25 f/1.8, 75-300
Certykul
Стаж: 4 года 8 мес.
Сообщений: 98
Ratio: 1,714
100%
В 80-е можно было говорить о всем. На диссидентов смотрели, как на дураков. Кто хотел мог заработать приличные деньги. Какие, зачем, вздрагивания при стуке в дверь??? Могли, конечно, приехать и арестовать, но только за уголовщину.
Показать сообщения:   
Начать новую тему   Ответить на тему    Торрент-трекер NNM-Club -> Отечественное кино -> Отечественные Фильмы (HD*Rip/LQ, DVDRip, SATRip, VHSRip) Часовой пояс: GMT + 3
Страница 1 из 1