Интеллигентный торрент-трекер
Нас вместе: 4 109 763

Новости торрент-трекера | Как тут скачивать? | Как раздавать торренты? | Правила оформления

Отверженные / Les Miserables (1982) DVDRip


 
 
RSS
Начать новую тему   Ответить на тему    Торрент-трекер NNM-Club -> Классика кино и Фильмы до 90-х -> Зарубежная Классика (HD*Rip/LQ, DVDRip, SATRip, VHSRip)
Предыдущая тема :: Следующая тема 
Автор Сообщение
Amira ®
Стаж: 6 лет 2 мес.
Сообщений: 75
Ratio: 3,409
Поблагодарили: 1650
100%
Сообщение 30 Май 2009 17:18:49  Заголовок сообщения: Отверженные / Les Miserables (1982) DVDRip Ответить с цитатой

Отверженные / Les miserables (1982) DVDRip
Производство: Франция, Германия (ФРГ) / TF1 Films Productions, G.E.F.
Жанр: Драма

Режиссер: Робер Оссейн
Актеры: Лино Вентура, Жан Карме, Мишель Буке, Эвелин Буикс, Кристиана Джин, Франк Давид, Эрве Фюрик, Робен Ренуччи, Франсуаз Сенье, Кэндис Пату

Описание:
Жан Вальжан отбыл на каторге 20 лет за кражу корки хлеба, а затем, после встречи с обезоруживающей добротой священника, у которого он крадет подсвечники, посвящает себя и всю свою жизнь творению добра.



Продолжительность: 01:43:55 + 01:48:43
Качество видео: DVDRip
Перевод: Одноголосый закадровый

Видеокодек: Xvid
Битрейт видео: ~1748 Кбит/с
Размер кадра: 544x368
Аудио: MP3, 2 ch, 128 Кбит/с
Код:

General
Complete name                    : D:\Отверженные_Лино Вентура\Отверженные_1.avi
Format                           : AVI
Format/Info                      : Audio Video Interleave
File size                        : 1.37 GiB
Duration                         : 1h 43mn
Overall bit rate                 : 1 883 Kbps
Writing application              : VirtualDubMod 1.5.4.1 (build 2178/release)
Writing library                  : VirtualDubMod build 2178/release

Video
ID                               : 0
Format                           : MPEG-4 Visual
Format profile                   : Advanced Simple@L5
Format settings, BVOP            : No
Format settings, QPel            : No
Format settings, GMC             : No warppoints
Format settings, Matrix          : Custom
Codec ID                         : XVID
Codec ID/Hint                    : XviD
Duration                         : 1h 43mn
Bit rate                         : 1 748 Kbps
Width                            : 544 pixels
Height                           : 368 pixels
Display aspect ratio             : 3:2
Frame rate                       : 25.000 fps
Color space                      : YUV
Chroma subsampling               : 4:2:0
Bit depth                        : 8 bits
Scan type                        : Progressive
Compression mode                 : Lossy
Bits/(Pixel*Frame)               : 0.349
Stream size                      : 1.27 GiB (93%)
Writing library                  : XviD 1.0.3 (UTC 2004-12-20)

Audio
ID                               : 1
Format                           : MPEG Audio
Format version                   : Version 1
Format profile                   : Layer 3
Mode                             : Joint stereo
Mode extension                   : MS Stereo
Codec ID                         : 55
Codec ID/Hint                    : MP3
Duration                         : 1h 43mn
Bit rate mode                    : Constant
Bit rate                         : 128 Kbps
Channel(s)                       : 2 channels
Sampling rate                    : 48.0 KHz
Compression mode                 : Lossy
Stream size                      : 95.2 MiB (7%)
Alignment                        : Aligned on interleaves
Interleave, duration             : 80 ms (2.00 video frames)
Interleave, preload duration     : 504 ms
Language                         : Russian

Код:

General
Complete name                    : D:\Отверженные_Лино Вентура\Отверженные_2.avi
Format                           : AVI
Format/Info                      : Audio Video Interleave
File size                        : 1.37 GiB
Duration                         : 1h 48mn
Overall bit rate                 : 1 800 Kbps
Writing application              : VirtualDubMod 1.5.4.1 (build 2178/release)
Writing library                  : VirtualDubMod build 2178/release

Video
ID                               : 0
Format                           : MPEG-4 Visual
Format profile                   : Advanced Simple@L5
Format settings, BVOP            : No
Format settings, QPel            : No
Format settings, GMC             : No warppoints
Format settings, Matrix          : Custom
Codec ID                         : XVID
Codec ID/Hint                    : XviD
Duration                         : 1h 48mn
Bit rate                         : 1 665 Kbps
Width                            : 544 pixels
Height                           : 368 pixels
Display aspect ratio             : 3:2
Frame rate                       : 25.000 fps
Color space                      : YUV
Chroma subsampling               : 4:2:0
Bit depth                        : 8 bits
Scan type                        : Progressive
Compression mode                 : Lossy
Bits/(Pixel*Frame)               : 0.333
Stream size                      : 1.26 GiB (92%)
Writing library                  : XviD 1.0.0 (UTC 2004-05-09)

Audio
ID                               : 1
Format                           : MPEG Audio
Format version                   : Version 1
Format profile                   : Layer 3
Mode                             : Joint stereo
Mode extension                   : MS Stereo
Codec ID                         : 55
Codec ID/Hint                    : MP3
Duration                         : 1h 48mn
Bit rate mode                    : Constant
Bit rate                         : 128 Kbps
Channel(s)                       : 2 channels
Sampling rate                    : 48.0 KHz
Compression mode                 : Lossy
Stream size                      : 99.5 MiB (7%)
Alignment                        : Aligned on interleaves
Interleave, duration             : 80 ms (2.00 video frames)
Interleave, preload duration     : 504 ms
Language                         : Russian

Скриншоты:
Время раздачи: 24/7
[NNM-Club.ru] Otverzhennyie_Lino Ventura.torrent
 Торрент: Платиновая раздача  Зарегистрирован
 


Скачать
 Зарегистрирован:   01 Июн 2009 14:07:46
 Размер:   2,73 GB  (
 Рейтинг:   4,9 (Голосов: 28)
 Поблагодарили:   93
 Проверка:   Оформление проверено модератором 01 Июн 2009 22:26:11
Как cкачать  ·  Как раздать  ·  Правильно оформить  ·  Поднять ратио!  


Последний раз редактировалось: Amira (01 Июн 2009 16:20:33), всего редактировалось 4 раз(а)
Domenic
Стаж: 6 лет 2 мес.
Сообщений: 522
Ratio: 57,004
Раздал: 4,777 TB
Поблагодарили: 15533
russia.gif
Сообщение 01 Июн 2009 14:17:50  Заголовок сообщения: Ответить с цитатой

Классика.Автору спасибо за релиз.
Shamho
Uploaders
 
Стаж: 6 лет 1 мес.
Сообщений: 55
Ratio: 11,736
Поблагодарили: 428
1.1%
Откуда: msk
russia.gif
Сообщение 02 Июн 2009 19:38:17  Заголовок сообщения: Ответить с цитатой

товарищ автор народ жаждет круглосуточной раздачи;)

_________________
бываю тут крайте редко, очень много работы((((((((
Amira ®
Стаж: 6 лет 2 мес.
Сообщений: 75
Ratio: 3,409
Поблагодарили: 1650
100%
Сообщение 02 Июн 2009 21:31:10  Заголовок сообщения: Ответить с цитатой

Неужели ни у кого не качается??? У меня идет раздача.. правда, стрелка у файла красная, ничего не могу сделать, но раздача идет)
tutys
Стаж: 6 лет 2 мес.
Сообщений: 68
Ratio: 5,486
Поблагодарили: 952
1.77%
ukraine.gif
Сообщение 13 Сен 2009 22:18:33  Заголовок сообщения: Ответить с цитатой

Фильм просто замечательный!
molot4y
Только чтение
Стаж: 5 лет 3 мес.
Сообщений: 336
Ratio: 5,06
Раздал: 9,806 TB
100%
ussr.gif
Сообщение 20 Мар 2011 00:51:00  Заголовок сообщения: Ответить с цитатой

Фильм замечательный. Согласен.
И потому хотелось бы его скачать.
Друзья Вернитесь на раздачу.
ПОЖАЛУЙСТА!!
:убится ап стену: :убится ап стену: :злость:

Добавлено спустя 6 минут 18 секунд:

Amira
Глубокоуважаемый Сударь!!
Не будете ли Вы столь любезны, вернутся на раздачу?!
Заранее благодарен!!
molot4y
Только чтение
Стаж: 5 лет 3 мес.
Сообщений: 336
Ratio: 5,06
Раздал: 9,806 TB
100%
ussr.gif
Сообщение 20 Мар 2011 10:58:33  Заголовок сообщения: Ответить с цитатой

Пошла закачка.
Хотя судя по скорости это займёт не одну неделю.
Всё равно Спасибо. :недовольный: :поклоняется:

Добавлено спустя 2 минуты 11 секунд:

Shamho
Сударь!
Поддержите раздачу. Пожалуйста
molot4y
Только чтение
Стаж: 5 лет 3 мес.
Сообщений: 336
Ratio: 5,06
Раздал: 9,806 TB
100%
ussr.gif
Сообщение 24 Мар 2011 22:13:25  Заголовок сообщения: Ответить с цитатой

Всем огромное СПАСИБО!! Фильм замечательный.
Скачал 06 экранизаций из существующих 06.
Отверженные - Les Miserables 1958 (Жан Габен)
Отверженные - Les Miserables 1982 (Лино Вентура)
Отверженные - Les Miserables 1998 (Лайэм Нисон )
Отверженные - Les Miserables 2000 (Жерар деПардье)
Посмотрел с огромным удовольствием.
Фильмы 1958г. с Жаном Габеном и 1982г. с Лино Вентурой без сомнения самые лучшие.
Всем их можно и нужно смотреть и пересматривать постоянно.
Остальные это на любителя но всё дальше и дальше от оригинала.
Есть ещё 02 экранизации с Бельмондо в главной роли и российская,
после просмотра всё что я мог для них сделать это удалить.
Ещё раз СПАСИБО за фильм!
aphranius3
Стаж: 4 года 7 мес.
Сообщений: 214
Ratio: 8,694
41.33%
Сообщение 09 Май 2011 21:11:47  Заголовок сообщения: Ответить с цитатой

большое большое спасибо
Missi​s_Pri​zrak​
Стаж: 4 года 2 мес.
Сообщений: 4
Ratio: 1,318
3.81%
russia.gif
Сообщение 11 Ноя 2011 19:26:04  Заголовок сообщения: Ответить с цитатой

дАЙТЕ СКОРОСТИ!!!!!!!!!!!!!!!!!!!!!!!!!!!
wuu
Стаж: 5 лет 6 мес.
Сообщений: 35
Ratio: 1,206
15.54%
Сообщение 31 Мар 2013 02:50:15  Заголовок сообщения: Ответить с цитатой

Спасибо, раздайте пожалуйста!
pervogaz
Стаж: 6 лет 2 мес.
Сообщений: 130
Ratio: 200,164
100%
ukraine.gif
Сообщение 30 Мар 2015 16:28:07  Заголовок сообщения: Ответить с цитатой

Спасибо !

Раздайте пожалуйста !!!
SKVSM
Покровитель талантов
 
Стаж: 4 года 8 мес.
Сообщений: 720
Ratio: 97,955
Поблагодарили: 16683
100%
Сообщение 01 Апр 2015 07:32:31  Заголовок сообщения: Ответить с цитатой

pervogaz писал(а): Перейти к сообщению
Спасибо !

Раздайте пожалуйста !!!

Забирайте.
Показать сообщения:   
Начать новую тему   Ответить на тему    Торрент-трекер NNM-Club -> Классика кино и Фильмы до 90-х -> Зарубежная Классика (HD*Rip/LQ, DVDRip, SATRip, VHSRip) Часовой пояс: GMT + 3
Страница 1 из 1