Классический форум-трекер
canvas not supported
Нас вместе: 4 065 128

Разные авторы | Ноябрь. Месяц фантастического рассказа (2018) [M4B|AAC]


 
 
RSS
Начать новую тему   Ответить на тему    Торрент-трекер NNM-Club -> Аудио и Видео -> Аудиокниги (AAC)
Автор Сообщение
trybag ®
Стаж: 5 лет 8 мес.
Сообщений: 140
Ratio: 14,233
Поблагодарили: 4100
100%
Разные авторы | Ноябрь. Месяц фантастического рассказа
Автор: Разные авторы
Год: 2018
Жанр: Фантастика
Продолжительность: 23:46:20
Читает: Кирилл Головин
Издательство: Аудиокнига своими руками

Описание: Вам представлен сборник фантастических рассказов разных зарубежных авторов в исполнении Кирилла Головина. Один рассказ - один день. Сделано в таком формате в ноябре 2018 года.

Формат: M4B
Аудиокодек: AAC
Битрейт: 128 kbps
Частота: 44,1 KHz
Разбивка на главы: есть
Вшитая обложка: есть
Музыкальное сопровождение: есть

Код: выделить все
Общее
Полное имя                               : Ноябрь. Месяц фантастического рассказа 1.m4b
Формат                                   : MPEG-4
Профиль формата                          : Base Media / Version 2
Идентификатор кодека                     : mp42 (mp42/isom/3gp4/3gp6)
Размер файла                             : 629 Мбайт
Продолжительность                        : 11 ч.
Режим общего битрейта                    : Переменный
Общий поток                              : 129 Кбит/сек
Альбом                                   : Месяц научной фантастики. Сборник рассказов
Альбом/Исполнитель                       : Разные авторы
Часть/Положение                          : 1
Трек                                     : Ноябрь. Месяц фантастического рассказа 1
Трек/Положение                           : 1
Трек/Всего                               : 2
Исполнитель                              : Разные авторы
Композитор                               : Кирилл Головин
Жанр                                     : Фантастика
Дата записи                              : 2018
Дата кодирования                         : UTC 2018-12-02 04:01:26
Дата пометки                             : UTC 2018-12-03 06:31:06
Обложка                                  : Yes
art                                      : Разные авторы

Аудио
Идентификатор                            : 1
Формат                                   : AAC
Формат/Информация                        : Advanced Audio Codec
Профиль формата                          : LC
Идентификатор кодека                     : mp4a-40-2
Продолжительность                        : 11 ч.
Вид битрейта                             : Переменный
Битрейт                                  : 128 Кбит/сек
Максимальный битрейт                     : 139 Кбит/сек
Каналы                                   : 2 канала
Расположение каналов                     : Front: L R
Частота                                  : 44,1 КГц
Частота кадров                           : 43,066 кадра/сек (1024 SPF)
Метод сжатия                             : С потерями
Размер потока                            : 622 Мбайт (99%)
Дата кодирования                         : UTC 2018-12-02 04:01:26
Дата пометки                             : UTC 2018-12-03 06:31:06
Menus                                    : 2

Меню
Идентификатор                            : 2
Идентификатор кодека                     : text
Продолжительность                        : 11 ч.
Язык                                     : English
Дата кодирования                         : UTC 2018-12-03 06:29:02
Дата пометки                             : UTC 2018-12-03 06:29:02
Menu For                                 : 1
00:00:00.000                             : Тед Чан - Купец и волшебные врата
01:27:42.895                             : Джордж Мартин - Портреты его детей
03:12:13.026                             : Терри Биссон - Медведи познают огонь
03:42:09.344                             : Роберт Силверберг - Пассажиры
04:14:20.432                             : Нил Гейман - Как общаться с девушками на вечеринках
04:44:23.694                             : Гарднер Дозуа - Утреннее Дитя
05:03:39.908                             : Ким Стэнли Робинсон - Слепой геометр
07:08:45.503                             : Клиффорд Саймак - Грот Танцующих оленей
07:53:57.780                             : Харлан Эллисон - Джеффти пять лет
08:43:32.302                             : Роберт Силверберг - Добрые вести из Ватикана
09:06:45.314                             : Майк Резник - Семь видов Олдувайского ущелья
Вид битрейта                             : VBR
Общее
Полное имя                               : Ноябрь. Месяц фантастического рассказа 2.m4b
Формат                                   : MPEG-4
Профиль формата                          : Base Media / Version 2
Идентификатор кодека                     : mp42 (mp42/isom/3gp4/3gp6)
Размер файла                             : 691 Мбайт
Продолжительность                        : 12 ч.
Режим общего битрейта                    : Переменный
Общий поток                              : 129 Кбит/сек
Альбом                                   : Месяц научной фантастики. Сборник рассказов
Альбом/Исполнитель                       : Разные авторы
Часть/Положение                          : 1
Трек                                     : Ноябрь. Месяц фантастического рассказа 2
Трек/Положение                           : 2
Трек/Всего                               : 2
Исполнитель                              : Разные авторы
Композитор                               : Кирилл Головин
Жанр                                     : Фантастика
Дата записи                              : 2018
Дата кодирования                         : UTC 2018-12-02 04:04:05
Дата пометки                             : UTC 2018-12-03 06:31:14
Обложка                                  : Yes
art                                      : Разные авторы

Аудио
Идентификатор                            : 1
Формат                                   : AAC
Формат/Информация                        : Advanced Audio Codec
Профиль формата                          : LC
Идентификатор кодека                     : mp4a-40-2
Продолжительность                        : 12 ч.
Вид битрейта                             : Переменный
Битрейт                                  : 128 Кбит/сек
Максимальный битрейт                     : 139 Кбит/сек
Каналы                                   : 2 канала
Расположение каналов                     : Front: L R
Частота                                  : 44,1 КГц
Частота кадров                           : 43,066 кадра/сек (1024 SPF)
Метод сжатия                             : С потерями
Размер потока                            : 684 Мбайт (99%)
Дата кодирования                         : UTC 2018-12-02 04:04:05
Дата пометки                             : UTC 2018-12-03 06:31:14
Menus                                    : 2

Меню
Идентификатор                            : 2
Идентификатор кодека                     : text
Продолжительность                        : 12 ч.
Язык                                     : English
Дата кодирования                         : UTC 2018-12-03 06:30:13
Дата пометки                             : UTC 2018-12-03 06:30:13
Menu For                                 : 1
00:00:00.000                             : Конни Уиллис - Даже у королевы
00:46:10.140                             : Фредерик Пол - Ферми и стужа
01:30:39.042                             : Дэвид Лэнгфорд - Иная тьма
01:57:31.412                             : Урсула Ле Гуин - Кости земные
02:49:53.745                             : Майкл Суэнвик - Пес сказал «Гав-гав»
03:32:55.665                             : Брюс Стерлинг - Манеки-неко
04:12:37.637                             : Айзек Азимов - Сны роботов
04:28:03.835                             : Тед Чан - Ад - это отсутствие Бога
05:59:55.672                             : Фриц Лейбер - Успеть на цеппелин
06:49:05.930                             : Грег Бир - Касательные
07:25:38.845                             : Джо Холдеман - Слепая любовь
08:00:41.946                             : Артур Кларк - Звезда
08:16:55.861                             : Ларри Нивен - Дырявый
08:50:15.192                             : Пэт Кэдиган - Встреча
09:30:51.684                             : Ричард Маккенна - Тайник
10:17:17.800                             : Кейт Вильгельм - Планировщики
10:59:13.892                             : Наоми Критцер - Еще кошек, пожалуйста
11:20:00.826                             : Почему я ушел из «Круглосуточных гамбургеров Гарри»
11:53:01.837                             : Джон Кроули - Пропали
Вид битрейта                             : VBR

[NNM-Club.me]_Noyabr'. Mesyats fantasticheskogo rasskaza.torrent
 Торрент:   Зарегистрирован
 
Зарегистрируйтесь и скачайте торрент!
13,5 KB

Примагнититься
 Зарегистрирован:   03 Дек 2018 06:16:26
 Размер:   1,29 GB  (
 Рейтинг:   4,6 (Голосов: 10)
 Поблагодарили:   58
 Проверка:   Оформление проверено модератором 03 Дек 2018 12:23:07
WebMoney кошелек: R662717423455
Как cкачать  ·  Как раздать  ·  Правильно оформить  ·  Поднять ратио!  
Aleiv
Стаж: 7 лет 6 мес.
Сообщений: 4001
Ratio: 119,582
100%
pirates.png
Хотя бы список авторов увидеть, не говоря уже о названии рассказов .:задумался:
И ещё бы семпл..., для услышать "музыкальное сопровождение".
Windjammer
Стаж: 9 лет 4 мес.
Сообщений: 648
Ratio: 2,494
Поблагодарили: 3
100%
ukraine.gif
Очень жаль, что нет содержания...

Содержание:

01. Тед Чан - Купец и волшебные врата.mp3
02. Джордж Мартин - Портреты его детей.mp3
03. Терри Биссон - Медведи познают огонь.mp3
04. Роберт Силверберг - Пассажиры.mp3
05. Нил Гейман - Как общаться с девушками на вечеринках.mp3
06. Гарднер Дозуа - Утреннее Дитя.mp3
07. Ким Стэнли Робинсон - Слепой геометр.mp3
08. Клиффорд Саймак - Грот Танцующих оленей.mp3
09. Харлан Эллисон - Джеффти пять лет.mp3
10. Роберт Силверберг - Добрые вести из Ватикана.mp3
11. Майк Резник - Семь видов Олдувайского ущелья.mp3

01. Конни Уиллис - Даже у королевы.mp3
02. Фредерик Пол - Ферми и стужа.mp3
03. Дэвид Лэнгфорд - Иная тьма.mp3
04. Урсула Ле Гуин - Кости земные.mp3
05. Майкл Суэнвик - Пес сказал «Гав-гав».mp3
06. Брюс Стерлинг - Манеки-неко.mp3
07. Айзек Азимов - Сны роботов.mp3
08. Тед Чан - Ад - это отсутствие Бога.mp3
09. Фриц Лейбер - Успеть на цеппелин.mp3
10. Грег Бир - Касательные.mp3
11. Джо Холдеман - Слепая любовь.mp3
12. Артур Кларк - Звезда.mp3
13. Ларри Нивен - Дырявый.mp3
14. Пэт Кэдиган - Встреча.mp3
15. Ричард Маккенна - Тайник.mp3
16. Кейт Вильгельм - Планировщики.mp3
17. Наоми Критцер - Еще кошек, пожалуйста.mp3
18. Почему я ушел из «Круглосуточных гамбургеров Гарри».mp3
19. Джон Кроули - Пропали.mp3
Windjammer
Стаж: 9 лет 4 мес.
Сообщений: 648
Ratio: 2,494
Поблагодарили: 3
100%
ukraine.gif
Прослушал.

Мое личное впечатление: это фантазии, но никак не научная фантастика. Категорически.
Показать сообщения:   
Начать новую тему   Ответить на тему    Торрент-трекер NNM-Club -> Аудио и Видео -> Аудиокниги (AAC) Часовой пояс: GMT + 3
Страница 1 из 1