Интеллигентный торрент-трекер
canvas not supported
Нас вместе: 4 103 266

Сергей Тармашев | Древний. Предыстория. Книга вторая (2018) [M4B|AAC]


 
 
RSS
Начать новую тему   Ответить на тему    Торрент-трекер NNM-Club -> Аудио и Видео -> Аудиокниги (AAC)
Автор Сообщение
trybag ®
Стаж: 5 лет 4 мес.
Сообщений: 136
Ratio: 13,191
Поблагодарили: 3770
100%
Сергей Тармашев | Древний. Предыстория. Книга вторая
Автор: Сергей Тармашев
Год: 2018
Жанр: Фантастика
Продолжительность: 10:38:11
Читает: Kirk
Издательство: Аудиокнига своими руками

Описание: В тяжелый для Родины час раса Сияющих вновь вступает в смертельную битву. Их враги бесчисленны, а их лидеры бессмертны — ведь сражаются и погибают не сами правители Тёмных миров, а лишь их аватары. Гибель в бою для Тёмных теперь означает не более чем потерю дорогостоящего оборудования, и страха перед смертью они не испытывают . А вот воины Сияющих умирают по-настоящему, и слова «страх» они не знают по иной причине. Чья же правда сильнее, чья Раса возьмет верх? Могучий ветеран Торбранд, известный как Тринадцатый, и юная Валькирия, совсем недавно ставшая его половинкой, вдвоем могут противостоять армадам врагов, — но чего им это будет стоить?

Формат: M4B
Аудиокодек: AAC
Битрейт: 192 kbps
Частота: 48,0 KHz
Разбивка на главы: есть
Вшитая обложка: есть
Музыкальное сопровождение: есть

1. Древний. Предыстория. Книга первая
2. Древний. Предыстория. Книга вторая
3. Древний. Предыстория. Книга третья
4. Древний. Предыстория. Книга четвёртая

Код: выделить все
Общее
Полное имя                               : Предыстория. Книга 2 1.m4b
Формат                                   : MPEG-4
Профиль формата                          : Apple audio with iTunes position
Идентификатор кодека                     : M4B  (M4B /mp42)
Размер файла                             : 398 Мбайт
Продолжительность                        : 4 ч. 46 м.
Режим общего битрейта                    : Постоянный
Общий поток                              : 194 Кбит/сек
Альбом                                   : Древний. Предыстория
Альбом/Исполнитель                       : Сергей Тармашев
Часть/Положение                          : 2
Часть/Всего                              : 4
Трек                                     : Предыстория. Книга 2 1
Трек/Положение                           : 1
Трек/Всего                               : 2
Исполнитель                              : Сергей Тармашев
Композитор                               : Kirk
Издатель                                 : Аудиокнига своими руками
Жанр                                     : Фантастика
Дата записи                              : 2018
Дата кодирования                         : UTC 2018-07-12 21:51:06
Дата пометки                             : UTC 2018-07-13 01:06:01
Обложка                                  : Yes
art                                      : Сергей Тармашев

Аудио
Идентификатор                            : 1
Формат                                   : AAC
Формат/Информация                        : Advanced Audio Codec
Профиль формата                          : LC
Идентификатор кодека                     : mp4a-40-2
Продолжительность                        : 4 ч. 46 м.
Продолжительность оригинала              : 4 ч. 46 м.
Вид битрейта                             : Постоянный
Битрейт                                  : 192 Кбит/сек
Каналы                                   : 1 канал
Расположение каналов                     : Front: C
Частота                                  : 48,0 КГц
Частота кадров                           : 46,875 кадров/сек (1024 SPF)
Метод сжатия                             : С потерями
Размер потока                            : 394 Мбайт (99%)
Размер потока оригинала                  : 394 Мбайт (99%)
Дата кодирования                         : UTC 2018-07-12 21:51:06
Дата пометки                             : UTC 2018-07-13 01:06:01
Menus                                    : 2

Меню
Идентификатор                            : 2
Идентификатор кодека                     : text
Продолжительность                        : 4 ч. 46 м.
Язык                                     : English
Дата кодирования                         : UTC 2018-07-13 01:04:57
Дата пометки                             : UTC 2018-07-13 01:04:57
Menu For                                 : 1
Продолжительность оригинала              : 17217238
Количество кадров оригинала              : 4
Размер потока оригинала                  : 104
Счётчик кадров                           : 4
Размер потока                            : 104
00:00:00.000                             : Глава 1
01:10:35.520                             : Глава 2
02:00:08.469                             : Глава 3
03:17:19.978                             : Глава 4
Вид битрейта                             : CBR

Общее
Полное имя                               : Предыстория. Книга 2 2.m4b
Формат                                   : MPEG-4
Профиль формата                          : Apple audio with iTunes position
Идентификатор кодека                     : M4B  (M4B /mp42)
Размер файла                             : 487 Мбайт
Продолжительность                        : 5 ч. 51 м.
Режим общего битрейта                    : Постоянный
Общий поток                              : 194 Кбит/сек
Альбом                                   : Древний. Предыстория
Альбом/Исполнитель                       : Сергей Тармашев
Часть/Положение                          : 2
Часть/Всего                              : 4
Трек                                     : Предыстория. Книга 2 2
Трек/Положение                           : 2
Трек/Всего                               : 2
Исполнитель                              : Сергей Тармашев
Композитор                               : Kirk
Издатель                                 : Аудиокнига своими руками
Жанр                                     : Фантастика
Дата записи                              : 2018
Дата кодирования                         : UTC 2018-07-12 21:55:44
Дата пометки                             : UTC 2018-07-13 01:06:09
Обложка                                  : Yes
art                                      : Сергей Тармашев

Аудио
Идентификатор                            : 1
Формат                                   : AAC
Формат/Информация                        : Advanced Audio Codec
Профиль формата                          : LC
Идентификатор кодека                     : mp4a-40-2
Продолжительность                        : 5 ч. 51 м.
Вид битрейта                             : Постоянный
Битрейт                                  : 192 Кбит/сек
Каналы                                   : 1 канал
Расположение каналов                     : Front: C
Частота                                  : 48,0 КГц
Частота кадров                           : 46,875 кадров/сек (1024 SPF)
Метод сжатия                             : С потерями
Размер потока                            : 482 Мбайт (99%)
Дата кодирования                         : UTC 2018-07-12 21:55:44
Дата пометки                             : UTC 2018-07-13 01:06:09
Menus                                    : 2

Меню
Идентификатор                            : 2
Идентификатор кодека                     : text
Продолжительность                        : 5 ч. 51 м.
Язык                                     : English
Дата кодирования                         : UTC 2018-07-13 01:05:23
Дата пометки                             : UTC 2018-07-13 01:05:23
Menu For                                 : 1
00:00:00.000                             : Глава 5
01:09:04.405                             : Глава 6
02:06:13.141                             : Глава 7
02:56:45.738                             : Глава 8
04:10:09.002                             : Глава 9
04:47:11.552                             : Глава 10
Вид битрейта                             : VBR

[NNM-Club.me]_Predyistoriya. Kniga 2.torrent
 Торрент:   Зарегистрирован
 
Зарегистрируйтесь и скачайте торрент!
17,8 KB
Free Leech
Примагнититься
 Зарегистрирован:   13 Июл 2018 06:29:16
 Размер:   884 MB  (
 Рейтинг:    (Голосов: 3)
 Поблагодарили:   19
 Проверка:   Оформление проверено модератором 13 Июл 2018 08:30:59
WebMoney кошелек: R662717423455
Как cкачать  ·  Как раздать  ·  Правильно оформить  ·  Поднять ратио!  
lesss
Стаж: 9 лет 2 мес.
Сообщений: 801
Ratio: 1M
100%
Лютейший бред в смеси с неприкрытым нацизмом.
Показать сообщения:   
Начать новую тему   Ответить на тему    Торрент-трекер NNM-Club -> Аудио и Видео -> Аудиокниги (AAC) Часовой пояс: GMT + 3
Страница 1 из 1