Классический форум-трекер
canvas not supported
Нас вместе: 4 065 014

Марк Калашников | Меж сном и явью (2018) [M4B|AAC]


 
 
RSS
Начать новую тему   Ответить на тему    Торрент-трекер NNM-Club -> Аудио и Видео -> Аудиокниги (AAC)
Автор Сообщение
trybag ®
Стаж: 5 лет 8 мес.
Сообщений: 140
Ratio: 14,233
Поблагодарили: 4100
100%
Марк Калашников | Меж сном и явью
Автор: Марк Калашников
Год: 2018
Жанр: Фантастика
Продолжительность: 16:19:51
Читает: Олег Кейнз
Издательство: Творческая группа "СамИздат"

Описание: Когда в спину дышит старуха с косой, согласишься на многое, а тут всего-навсего работу предлагают. И не где-нибудь, а в легендарной корпорации «Трансформа»! Да и работенка не пыльная: стать бета-тестером новой компьютерной игры с полным погружением в виртуальную реальность. Подарок судьбы! Разве что раса досталась весьма специфическая и не очень почетная, да болевой фильтр чуть выше, чем у остальных. Главное - живешь! С этими мыслями Артем уже не просто играет, а живет в виртуальном мире, не догадываясь, что «Трансформа» не просто корпорация со звучным именем…

Формат: M4B
Аудиокодек: AAC
Битрейт: 192 kbps
Частота: 44,1 KHz
Разбивка на главы: есть
Разбивка на части: есть
Вшитая обложка: есть
Музыкальное сопровождение: нет

1. Меж сном и явью
2. Во имя Веры!
3. Путь Зверя
4. Прайд
5. Разлом

Код: выделить все
Общее
Полное имя                               : Меж сном и явью 1.m4b
Формат                                   : MPEG-4
Профиль формата                          : Apple audio with iTunes position
Идентификатор кодека                     : M4B  (M4B /mp42)
Размер файла                             : 667 Мбайт
Продолжительность                        : 8 ч. 1 м.
Режим общего битрейта                    : Переменный
Общий поток                              : 193 Кбит/сек
Альбом                                   : Трансформа
Альбом/Исполнитель                       : Марк Калашников
Часть/Положение                          : 1
Часть/Всего                              : 5
Трек                                     : Меж сном и явью 1
Трек/Положение                           : 1
Трек/Всего                               : 2
Исполнитель                              : Марк Калашников
Композитор                               : Олег Кейнз
Издатель                                 : Творческая группа "СамИздат"
Жанр                                     : Фантастика
Дата записи                              : 2018
Дата кодирования                         : UTC 2018-06-13 18:16:14
Дата пометки                             : UTC 2018-06-13 22:00:52
Обложка                                  : Yes
art                                      : Марк Калашников

Аудио
Идентификатор                            : 1
Формат                                   : AAC
Формат/Информация                        : Advanced Audio Codec
Профиль формата                          : LC
Идентификатор кодека                     : mp4a-40-2
Продолжительность                        : 8 ч. 1 м.
Вид битрейта                             : Переменный
Битрейт                                  : 192 Кбит/сек
Максимальный битрейт                     : 202 Кбит/сек
Каналы                                   : 2 канала
Расположение каналов                     : Front: L R
Частота                                  : 44,1 КГц
Частота кадров                           : 43,066 кадра/сек (1024 SPF)
Метод сжатия                             : С потерями
Размер потока                            : 662 Мбайт (99%)
Дата кодирования                         : UTC 2018-06-13 18:16:14
Дата пометки                             : UTC 2018-06-13 22:00:52
Menus                                    : 2

Меню
Идентификатор                            : 2
Идентификатор кодека                     : text
Продолжительность                        : 8 ч. 1 м.
Язык                                     : English
Дата кодирования                         : UTC 2018-06-13 21:59:21
Дата пометки                             : UTC 2018-06-13 21:59:21
Menu For                                 : 1
00:00:00.000                             : Шанс
01:07:26.448                             : Крысиный ход
02:19:03.649                             : Багровые реки
03:42:45.104                             : Неприязнь
04:41:00.682                             : Хвостатый вопрос
05:33:07.202                             : С позиции силы
06:22:32.298                             : В дождливый путь!
07:12:18.384                             : Свидание со смертью
Вид битрейта                             : VBR
Общее
Полное имя                               : Меж сном и явью 2.m4b
Формат                                   : MPEG-4
Профиль формата                          : Apple audio with iTunes position
Идентификатор кодека                     : M4B  (M4B /mp42)
Размер файла                             : 689 Мбайт
Продолжительность                        : 8 ч. 18 м.
Режим общего битрейта                    : Переменный
Общий поток                              : 193 Кбит/сек
Альбом                                   : Трансформа
Альбом/Исполнитель                       : Марк Калашников
Часть/Положение                          : 1
Часть/Всего                              : 5
Трек                                     : Меж сном и явью 2
Трек/Положение                           : 2
Трек/Всего                               : 2
Исполнитель                              : Марк Калашников
Композитор                               : Олег Кейнз
Издатель                                 : Творческая группа "СамИздат"
Жанр                                     : Фантастика
Дата записи                              : 2018
Дата кодирования                         : UTC 2018-06-13 18:30:14
Дата пометки                             : UTC 2018-06-13 22:00:59
Обложка                                  : Yes
art                                      : Марк Калашников

Аудио
Идентификатор                            : 1
Формат                                   : AAC
Формат/Информация                        : Advanced Audio Codec
Профиль формата                          : LC
Идентификатор кодека                     : mp4a-40-2
Продолжительность                        : 8 ч. 18 м.
Продолжительность оригинала              : 8 ч. 18 м.
Вид битрейта                             : Переменный
Битрейт                                  : 192 Кбит/сек
Максимальный битрейт                     : 202 Кбит/сек
Каналы                                   : 2 канала
Расположение каналов                     : Front: L R
Частота                                  : 44,1 КГц
Частота кадров                           : 43,066 кадра/сек (1024 SPF)
Метод сжатия                             : С потерями
Размер потока                            : 684 Мбайт (99%)
Размер потока оригинала                  : 684 Мбайт (99%)
Дата кодирования                         : UTC 2018-06-13 18:30:14
Дата пометки                             : UTC 2018-06-13 22:00:59
Menus                                    : 2

Меню
Идентификатор                            : 2
Идентификатор кодека                     : text
Продолжительность                        : 8 ч. 18 м.
Язык                                     : English
Дата кодирования                         : UTC 2018-06-13 22:00:00
Дата пометки                             : UTC 2018-06-13 22:00:00
Menu For                                 : 1
Продолжительность оригинала              : 29881622
Количество кадров оригинала              : 10
Размер потока оригинала                  : 392
Счётчик кадров                           : 10
Размер потока                            : 392
00:00:00.000                             : Долг в тысячу душ
00:46:30.086                             : На пути возрождения
01:39:11.088                             : Меж сном и явью
02:21:37.830                             : Задание поневоле
03:31:30.541                             : Вверх
04:14:58.281                             : Баш на баш
04:57:17.197                             : Пристанище
05:47:25.528                             : Кто ты есть
06:36:59.029                             : Свободное падение
07:28:16.764                             : Меж двух миров
Вид битрейта                             : VBR

[NNM-Club.me]_Mezh snom i yav'yu.torrent
 Торрент: Платиновая раздача  Зарегистрирован
 
Скачать


Примагнититься
 Зарегистрирован:   13 Июн 2018 22:21:20
 Размер:   1,32 GB  (
 Рейтинг:    (Голосов: 3)
 Поблагодарили:   32
 Проверка:   Оформление проверено модератором 14 Июн 2018 00:38:19
WebMoney кошелек: R662717423455
Как cкачать  ·  Как раздать  ·  Правильно оформить  ·  Поднять ратио!  
Показать сообщения:   
Начать новую тему   Ответить на тему    Торрент-трекер NNM-Club -> Аудио и Видео -> Аудиокниги (AAC) Часовой пояс: GMT + 3
Страница 1 из 1