Классический форум-трекер
canvas not supported
Нас вместе: 4 087 181

Супермен / Superman (1996-2000) DVDRemux (сезоны 1-3 из 3, серии 01-54 из 54)


 
 
RSS
Начать новую тему   Ответить на тему    Торрент-трекер NNM-Club -> Мультфильмы -> Зарубежные Мультсериалы
Автор Сообщение
Maksimmeteor ®
Стаж: 5 лет 1 мес.
Сообщений: 17
Ratio: 59,415
Раздал: 12,09 TB
Поблагодарили: 299
100%
Супермен / Superman (1996-2000) DVDRemux
Производство: США (Warner Bros. Animation)
Жанр: приключения, фантастика, рисованная анимация

Режиссер: Курт Геда, Дэн Риба, Тосихико Масуда, Кэндзи Хатидзаки, Хироюки Аояма, Батч Лукич, Синъити Цудзи, Кадзухидэ Томонага, Юичиро Яно, Скотт Джералдс, Брюс В. Тимм, Нобуо Томидзава, Казуми Фукусима
Персонажи: Кларк Кент (Супермен), Кара Кент (Супергерл), Лекс Лютор, Лоис Лейн, Брейниак, Дарксайд и др.

Описание:
Днем он обычный человек, Кларк Кент. Но если кто-то вздумает нарушить закон, он надевает свой костюм героя, красно-синее трико с огромным символом «S» на груди, и идет на борьбу с преступниками. Он - Супермен, не простой землянин, а представитель инопланетной расы. Его родная планета Криптон взорвалась, но он, будучи еще совсем малышом, спасся - капсулу с Суперменом отправили в космос. Он попал на Землю, где его приютила одна семья. Супермена не может уничтожить ни одно оружие, но у него есть одно слабое место. Гибель герою может принести только радиоактивное вещество с родной планеты Супермена - криптонит.


Возраст: 12+ (зрителям, достигшим 12 лет)

Продолжительность: ~00:22:00 серия
Качество видео: DVDRemux
Перевод: дублированный (СТС), одноголосый закадровый (Rey Gleeson, серии 5,7,9)
Субтитры: отсутствуют

Видео: MPEG-2, 720x480@720x540, ~5104 kbps
Аудио#1: AC3, 2 ch, 192 kbps (русский)
Аудио#2: AC3, 2 ch, 192 kbps (английский)

Код: выделить все
Общее
Уникальный идентификатор                 : 195229059490674358057627048396236990609 (0x92DFBFC9862F7F2307D5D63BFDB32891)
Полное имя                               : 1996 Superman\Season 1\01. The Last Son of Krypton 1.mkv
Формат                                   : Matroska
Версия формата                           : Version 4 / Version 2
Размер файла                             : 828 Мбайт
Продолжительность                        : 21 м. 5 с.
Режим общего битрейта                    : Переменный
Общий поток                              : 5491 Кбит/сек
Дата кодирования                         : UTC 2018-06-07 04:06:29
Программа кодирования                    : mkvmerge v23.0.0 ('The Bride Said No') 64-bit
Библиотека кодирования                   : libebml v1.3.6 + libmatroska v1.4.9

Видео
Идентификатор                            : 1
Формат                                   : MPEG Video
Версия формата                           : Version 2
Профиль формата                          : Main@Main
Настройки формата                        : CustomMatrix / BVOP
Параметр BVOP формата                    : Да
Параметр матрицы формата                 : Выборочная
Параметр GOP формата                     : M=3, N=15
Структура изображения                    : Frame
Идентификатор кодека                     : V_MPEG2
Идентификатор кодека/Информация          : MPEG 1 or 2 Video
Продолжительность                        : 21 м. 5 с.
Вид битрейта                             : Переменный
Битрейт                                  : 5104 Кбит/сек
Максимальный битрейт                     : 7500 Кбит/сек
Ширина                                   : 720 пикселей
Высота                                   : 480 пикселей
Соотношение сторон                       : 4:3
Режим частоты кадров                     : Постоянный
Частота кадров                           : 29,970 (30000/1001) кадров/сек
Стандарт вещания                         : NTSC
Цветовое пространство                    : YUV
Субдискретизация насыщенности            : 4:2:0
Битовая глубина                          : 8 бит
Тип развёртки                            : Чересстрочная
Порядок развёртки                        : Верхнее поле первое
Метод сжатия                             : С потерями
Бит/(Пиксели*Кадры)                      : 0.493
Временной код первого кадра              : 00:59:59:00
Оригинал временного кода                 : Group of pictures header
GOP, открыто/закрыто                     : Открыто
GOP, открыто/закрыто на первом кадре     : Закрыто
Размер потока                            : 770 Мбайт (93%)
Язык                                     : Несколько языков
Default                                  : Нет
Forced                                   : Нет

Аудио #1
Идентификатор                            : 2
Формат                                   : AC-3
Формат/Информация                        : Audio Coding 3
Идентификатор кодека                     : A_AC3
Продолжительность                        : 21 м. 5 с.
Вид битрейта                             : Постоянный
Битрейт                                  : 192 Кбит/сек
Каналы                                   : 2 канала
Расположение каналов                     : Front: L R
Частота                                  : 48,0 КГц
Частота кадров                           : 31,250 кадров/сек (1536 SPF)
Битовая глубина                          : 16 бит
Метод сжатия                             : С потерями
Размер потока                            : 29,0 Мбайт (3%)
Язык                                     : Russian
ServiceKind/String                       : Complete Main
Default                                  : Да
Forced                                   : Нет

Аудио #2
Идентификатор                            : 3
Формат                                   : AC-3
Формат/Информация                        : Audio Coding 3
Идентификатор кодека                     : A_AC3
Продолжительность                        : 21 м. 5 с.
Вид битрейта                             : Постоянный
Битрейт                                  : 192 Кбит/сек
Каналы                                   : 2 канала
Расположение каналов                     : Front: L R
Частота                                  : 48,0 КГц
Частота кадров                           : 31,250 кадров/сек (1536 SPF)
Битовая глубина                          : 16 бит
Метод сжатия                             : С потерями
Размер потока                            : 29,0 Мбайт (3%)
Язык                                     : English
ServiceKind/String                       : Complete Main
Default                                  : Нет
Forced                                   : Нет

01. The Last Son of Krypton 1
02. The Last Son of Krypton 2
03. The Last Son of Krypton 3
04. Fun and Games
05. A Little Piece of Home
06. Feeding Time
07. The Way of All Fles
08. Stolen Memories
09. The Main Man 1
10. The Main Man 2
11. My Girl
12. Tools of the Trade
13. Two's a Crowd
14. Blasts From the Past 1
15. Blasts From the Past 2
16. The Prometheon
17. Speed Demons
18. Livewire
19. Identity Crisis
20. Target
21. Mxyzpixilated
22. Action Figures
23. Double Dose
24. Solar Power
25. Brave New Metropolis
26. Monkey Fun
27. Ghost in the Machine
28. Father's Day
29. World's Fines 1
30. World's Fines 2
31. World's Fines 3
32. Bizarro's World
33. The Hand of Fate
34. Prototype
35. The Late Mr. Kent
36. Heavy Metal
37. Warrior Queen
38. Apokolips…Now! 1
39. Apokolips…Now! 2
40. Little Girl Lost 1
41. Little Girl Lost 2
42. Where There's Smoke
43. Knight Time
44. New Kids in Town
45. Obsession
46. Little Big Head Man
47. Absolute Power
48. In Brightest Day…
49. Superman's Pal
50. A Fish Story
51. Unity
52. The Demon Reborn
53. Legacy 1
54. Legacy 2
DVD9 (Custom): Владимир Ленин
Благодарность «Rey Gleeson, grandmajor»:
  • grandmajor - перевод серий 5, 7, 9 второго сезона - молодец так держать!!!!!!!!
  • Rey Gleeson - озвучка

Благодарность «DisneyJazz»:
  • ShinshilaJr, 28 птиц [hirosim], waren, Silver Surfer - предоставление звуков на многие серии
  • Goldsword - запись «захват» видео, аудио с ТВ
  • maxdie, KOT- синхронизация звуковых дорожек

Благодарность «RG Мультфильмы»:
  • xfiles, multmir - за советы в изготовлении

DVDRemux и оформление раздачи: Maksimmeteor (с разрешения RG Мультфильмы)
DVDRemux - DVD качество
Скриншоты
Все одноименные релизы в Клубе
Время раздачи: по мере возможности (GMT + 11)
[NNM-Club.me]_1996 Superman.torrent
 Торрент: Платиновая раздача  Зарегистрирован
 
Скачать


Примагнититься
 Зарегистрирован:   12 Июн 2018 11:22:53
 Размер:   46,4 GB  (
 Рейтинг:    (Голосов: 7)
 Поблагодарили:   32
 Проверка:   Оформление проверено модератором 12 Июн 2018 13:37:36
Как cкачать  ·  Как раздать  ·  Правильно оформить  ·  Поднять ратио!  
denver7979
Зам. Куратора Детского.
Модератор Видео.
RG Всё лучшее - детям!
 
Стаж: 7 лет 9 мес.
Сообщений: 6958
Ratio: 496,355
Раздал: 30,35 TB
Поблагодарили: 286095
100%
Откуда: Земля
ussr.gif
Maksimmeteor
Выражаю вам огромную благодарность за замечательные релизы, прекрасное оформление, внимание к Правилам Клуба, за вашу заинтересованность и трудолюбие. Вы несете большую пользу и удовольствие ценителям мультипликации :приветствую: Друзья

_________________
§ Основной FAQ & Все ПравилаНабор в RG NNM-Club Всё для детей, пап и мам
* Все вопросы в ☛ ЛС по вашим релизам ☣
обязательно со ссылками на темы, о которых идёт речь ☺
Maksimmeteor ®
Стаж: 5 лет 1 мес.
Сообщений: 17
Ratio: 59,415
Раздал: 12,09 TB
Поблагодарили: 299
100%
denver7979 писал(а): Перейти к сообщению
Maksimmeteor
Выражаю вам огромную благодарность за замечательные релизы, прекрасное оформление, внимание к Правилам Клуба, за вашу заинтересованность и трудолюбие. Вы несете большую пользу и удовольствие ценителям мультипликации :приветствую: Друзья
Я рад, всем счастья и развития! :приветствую:
Показать сообщения:   
Начать новую тему   Ответить на тему    Торрент-трекер NNM-Club -> Мультфильмы -> Зарубежные Мультсериалы Часовой пояс: GMT + 3
Страница 1 из 1