Классический форум-трекер
canvas not supported
Нас вместе: 4 064 919

Первая передача на НТВ. Автомобильная передача (11.06.2018)


 
 
RSS
Начать новую тему   Ответить на тему    Торрент-трекер NNM-Club -> Документалистика и Телепередачи -> За рулем
Автор Сообщение
Катюша ®
Мне бы в небо!
Стаж: 6 лет 8 мес.
Сообщений: 206
Ratio: 151,123
Поблагодарили: 17724
100%
witch.png
Первая передача на НТВ. Автомобильная передача (11.06.2018) SATRip

Телекомпания: НТВ
Жанр: Автопередача

Ведущий: Виктор Травин

Описание:
Чужой смартфон «чудом» оказался внутри вашей машины. Что делать в щекотливой ситуации? Фара так сломалась, аж двигатель застучал. Лопнула покрышка и у попутки бампер "сдуло"? Кто оплатит ремонт? Опасные многоэтажки..


« Первая передача» — новый проект для автомобилистов и про автомобилистов. Ведущий «Первой передачи» — Виктор Травин, президент Коллегии правовой защиты автовладельцев. Уже много лет этот известный журналист защищает права автолюбителей. В автомире для него нет секретов и закрытых дверей. Всех, кто не представляет своей жизни без автомобиля, и тех, кто только задумывается о приобретении собственного авто, ждут ответы на самые актуальные вопросы.

Релиз от: РиперАМ
Продолжительность: ~ 00:29:45
Качество видео: SATRip
Субтитры: Отсутствуют

Видео: MPEG4, XviD, 720x448 (1.607), 25.000 fps, 1 800 Kbps (0.223 bit/pixel)
Аудио: MP3, 48.0 KHz, 2 ch, 128 Kbps, CBR

Общее
Полное имя : Pervaya.peredacha.(2018.06.11).SATRip.avi
Формат : AVI
Формат/Информация : Audio Video Interleave
Размер файла : 412 Мбайт
Продолжительность : 29 м. 45 с.
Общий поток : 1937 Кбит/сек
Программа кодирования : VirtualDubMod 1.5.10.3 | www.virtualdub-fr.org || (build 2550/release)
Библиотека кодирования : VirtualDubMod build 2550/release

Видео
Идентификатор : 0
Формат : MPEG-4 Visual
Профиль формата : Advanced Simple@L5
Настройки формата : BVOP2
Параметр BVOP формата : 2
Параметр QPel формата : Нет
Параметр GMC формата : Без точки перехода
Параметр матрицы формата : Default (MPEG)
Идентификатор кодека : XVID
Идентификатор кодека/Подсказка : XviD
Продолжительность : 29 м. 45 с.
Битрейт : 1800 Кбит/сек
Ширина : 720 пикселей
Высота : 448 пикселей
Соотношение сторон : 16:10
Частота кадров : 25,000 кадров/сек
Цветовое пространство : YUV
Субдискретизация насыщенности : 4:2:0
Битовая глубина : 8 бит
Тип развёртки : Прогрессивная
Метод сжатия : С потерями
Бит/(Пиксели*Кадры) : 0.223
Размер потока : 383 Мбайт (93%)
Библиотека кодирования : XviD 73

Аудио
Идентификатор : 1
Формат : MPEG Audio
Версия формата : Version 1
Профиль формата : Layer 3
Идентификатор кодека : 55
Идентификатор кодека/Подсказка : MP3
Продолжительность : 29 м. 45 с.
Вид битрейта : Постоянный
Битрейт : 128 Кбит/сек
Каналы : 2 канала
Частота : 48,0 КГц
Частота кадров : 41,667 кадра/сек (1152 SPF)
Метод сжатия : С потерями
Размер потока : 27,2 Мбайт (7%)
Выравнивание : Соединение по промежуткам
Продолжительность промежутка : 40 мс. (1,00 видеокадр)
Время предзагрузки промежутка : 504 мс.
Библиотека кодирования : LAME3.99r
Настройки программы : -m s -V 4 -q 2 -lowpass 17 -b 128

Скриншоты:


Все одноименные релизы в Клубе
Время раздачи: 24/7. До первых 5 скачавших.
[NNM-Club.me]_Pervaya.peredacha.(2018.06.11).SATRip..avi.torrent
 Торрент: Платиновая раздача  Зарегистрирован
 
Скачать


Примагнититься
 Зарегистрирован:   11 Июн 2018 08:03:18
 Размер:   412 MB  (
 Рейтинг:   5 (Голосов: 20)
 Поблагодарили:   72
 Проверка:   Оформление проверено модератором 11 Июн 2018 09:49:03
Как cкачать  ·  Как раздать  ·  Правильно оформить  ·  Поднять ратио!  

_________________
С годами старые фильмы становятся все лучше, а новые - все хуже.
Показать сообщения:   
Начать новую тему   Ответить на тему    Торрент-трекер NNM-Club -> Документалистика и Телепередачи -> За рулем Часовой пояс: GMT + 3
Страница 1 из 1